  0
SECTION
  2
HEADER
  9
$ACADVER
  1
AC1009
  9
$DWGCODEPAGE
  3
ansi_1252
  9
$INSBASE
 10
0.0
 20
0.0
 30
0.0
  9
$EXTMIN
 10
0.0
 20
0.0
 30
0.0
  9
$EXTMAX
 10
297.0
 20
210.0
 30
0.0
  9
$LIMMIN
 10
0.0
 20
0.0
  9
$LIMMAX
 10
297.0
 20
210.0
  9
$ORTHOMODE
 70
     0
  9
$REGENMODE
 70
     1
  9
$FILLMODE
 70
     1
  9
$QTEXTMODE
 70
     0
  9
$MIRRTEXT
 70
     1
  9
$DRAGMODE
 70
     2
  9
$LTSCALE
 40
1.0
  9
$OSMODE
 70
    37
  9
$ATTMODE
 70
     1
  9
$TEXTSIZE
 40
3.5
  9
$TRACEWID
 40
1.0
  9
$TEXTSTYLE
  7
STANDARD
  9
$CLAYER
  8
0
  9
$CELTYPE
  6
BYLAYER
  9
$CECOLOR
 62
   256
  9
$DIMSCALE
 40
1.0
  9
$DIMASZ
 40
4.0
  9
$DIMEXO
 40
1.0
  9
$DIMDLI
 40
3.75
  9
$DIMRND
 40
0.0
  9
$DIMDLE
 40
0.0
  9
$DIMEXE
 40
1.0
  9
$DIMTP
 40
0.0
  9
$DIMTM
 40
0.0
  9
$DIMTXT
 40
3.8805555556
  9
$DIMCEN
 40
2.5
  9
$DIMTSZ
 40
0.0
  9
$DIMTOL
 70
     0
  9
$DIMLIM
 70
     0
  9
$DIMTIH
 70
     1
  9
$DIMTOH
 70
     1
  9
$DIMSE1
 70
     0
  9
$DIMSE2
 70
     0
  9
$DIMTAD
 70
     1
  9
$DIMZIN
 70
     0
  9
$DIMBLK
  1

  9
$DIMASO
 70
     1
  9
$DIMSHO
 70
     1
  9
$DIMPOST
  1

  9
$DIMAPOST
  1

  9
$DIMALT
 70
     0
  9
$DIMALTD
 70
     3
  9
$DIMALTF
 40
0.0393700787
  9
$DIMLFAC
 40
0.6666666667
  9
$DIMTOFL
 70
     1
  9
$DIMTVP
 40
0.0
  9
$DIMTIX
 70
     0
  9
$DIMSOXD
 70
     0
  9
$DIMSAH
 70
     0
  9
$DIMBLK1
  1

  9
$DIMBLK2
  1

  9
$DIMSTYLE
  2
ISO-25
  9
$DIMCLRD
 70
     0
  9
$DIMCLRE
 70
     0
  9
$DIMCLRT
 70
     0
  9
$DIMTFAC
 40
1.0
  9
$DIMGAP
 40
1.524
  9
$LUNITS
 70
     2
  9
$LUPREC
 70
     3
  9
$SKETCHINC
 40
1.0
  9
$FILLETRAD
 40
10.0
  9
$AUNITS
 70
     0
  9
$AUPREC
 70
     3
  9
$MENU
  1
.
  9
$ELEVATION
 40
0.0
  9
$PELEVATION
 40
0.0
  9
$THICKNESS
 40
0.0
  9
$LIMCHECK
 70
     0
  9
$CHAMFERA
 40
0.0
  9
$CHAMFERB
 40
0.0
  9
$SKPOLY
 70
     0
  9
$TDCREATE
 40
2457374.663396505
  9
$TDUPDATE
 40
2457374.663399167
  9
$TDINDWG
 40
0.0000000116
  9
$TDUSRTIMER
 40
0.0000000116
  9
$USRTIMER
 70
     1
  9
$ANGBASE
 50
0.0
  9
$ANGDIR
 70
     0
  9
$PDMODE
 70
     0
  9
$PDSIZE
 40
-1.0
  9
$PLINEWID
 40
0.0
  9
$COORDS
 70
     1
  9
$SPLFRAME
 70
     0
  9
$SPLINETYPE
 70
     6
  9
$SPLINESEGS
 70
     8
  9
$ATTDIA
 70
     0
  9
$ATTREQ
 70
     1
  9
$HANDLING
 70
     1
  9
$HANDSEED
  5
64F
  9
$SURFTAB1
 70
     6
  9
$SURFTAB2
 70
     6
  9
$SURFTYPE
 70
     6
  9
$SURFU
 70
     6
  9
$SURFV
 70
     6
  9
$UCSNAME
  2

  9
$UCSORG
 10
0.0
 20
0.0
 30
0.0
  9
$UCSXDIR
 10
1.0
 20
0.0
 30
0.0
  9
$UCSYDIR
 10
0.0
 20
1.0
 30
0.0
  9
$PUCSNAME
  2

  9
$PUCSORG
 10
0.0
 20
0.0
 30
0.0
  9
$PUCSXDIR
 10
1.0
 20
0.0
 30
0.0
  9
$PUCSYDIR
 10
0.0
 20
1.0
 30
0.0
  9
$USERI1
 70
     0
  9
$USERI2
 70
     0
  9
$USERI3
 70
     0
  9
$USERI4
 70
     0
  9
$USERI5
 70
     0
  9
$USERR1
 40
0.0
  9
$USERR2
 40
0.0
  9
$USERR3
 40
0.0
  9
$USERR4
 40
0.0
  9
$USERR5
 40
0.0
  9
$WORLDVIEW
 70
     1
  9
$SHADEDGE
 70
     3
  9
$SHADEDIF
 70
    70
  9
$TILEMODE
 70
     1
  9
$MAXACTVP
 70
    64
  9
$PLIMCHECK
 70
     0
  9
$PEXTMIN
 10
1.0000000000E+20
 20
1.0000000000E+20
 30
1.0000000000E+20
  9
$PEXTMAX
 10
-1.0000000000E+20
 20
-1.0000000000E+20
 30
-1.0000000000E+20
  9
$PLIMMIN
 10
0.0
 20
0.0
  9
$PLIMMAX
 10
420.0
 20
297.0
  9
$UNITMODE
 70
     0
  9
$VISRETAIN
 70
     1
  9
$PLINEGEN
 70
     0
  9
$PSLTSCALE
 70
     1
  0
ENDSEC
  0
SECTION
  2
TABLES
  0
TABLE
  2
VPORT
 70
     1
  0
VPORT
  2
*ACTIVE
 70
     0
 10
0.0
 20
0.0
 11
1.0
 21
1.0
 12
148.5
 22
105.0
 13
0.0
 23
0.0
 14
10.0
 24
10.0
 15
10.0
 25
10.0
 16
0.0
 26
0.0
 36
1.0
 17
0.0
 27
0.0
 37
0.0
 40
210.0
 41
1.4142857143
 42
50.0
 43
0.0
 44
0.0
 50
0.0
 51
0.0
 71
     0
 72
  2000
 73
     1
 74
     3
 75
     0
 76
     0
 77
     0
 78
     0
  0
ENDTAB
  0
TABLE
  2
LTYPE
 70
     6
  0
LTYPE
  2
CONTINUOUS
 70
     0
  3
Solid line
 72
    65
 73
     0
 40
0.0
  0
LTYPE
  2
HIDDEN
 70
     0
  3
Hidden __ __ __ __ __ __ __ __ __ __ __ __ __ __
 72
    65
 73
     2
 40
1.905
 49
1.27
 49
-0.635
  0
LTYPE
  2
PHANTOM
 70
     0
  3
Phantom ______  __  __  ______  __  __  ______
 72
    65
 73
     6
 40
12.7
 49
6.35
 49
-1.27
 49
1.27
 49
-1.27
 49
1.27
 49
-1.27
  0
LTYPE
  2
CENTER
 70
     0
  3
Center ____ _ ____ _ ____ _ ____ _ ____ _ ____
 72
    65
 73
     4
 40
10.16
 49
6.35
 49
-1.27
 49
1.27
 49
-1.27
  0
LTYPE
  2
CENTERX2
 70
     0
  3
Center (2x) ________  __  ________  __  _____
 72
    65
 73
     4
 40
20.32
 49
12.7
 49
-2.54
 49
2.54
 49
-2.54
  0
LTYPE
  2
DOT2
 70
     0
  3
Dot (.5x) ........................................
 72
    65
 73
     2
 40
0.635
 49
0.0
 49
-0.635
  0
ENDTAB
  0
TABLE
  2
LAYER
 70
     1
  0
LAYER
  2
0
 70
     0
 62
     7
  6
CONTINUOUS
  0
ENDTAB
  0
TABLE
  2
STYLE
 70
     1
  0
STYLE
  2
STANDARD
 70
     0
 40
0.0
 41
1.0
 50
0.0
 71
     0
 42
3.5
  3
txt
  4

  0
ENDTAB
  0
TABLE
  2
VIEW
 70
     0
  0
ENDTAB
  0
TABLE
  2
UCS
 70
     0
  0
ENDTAB
  0
TABLE
  2
APPID
 70
     1
  0
APPID
  2
ACAD
 70
     0
  0
ENDTAB
  0
TABLE
  2
DIMSTYLE
 70
     3
  0
DIMSTYLE
  2
ISO-25
 70
     0
  3

  4

  5

  6

  7

 40
1.0
 41
2.5
 42
0.625
 43
3.75
 44
1.25
 45
0.0
 46
0.0
 47
0.0
 48
0.0
140
2.5
141
2.5
142
0.0
143
0.0393700787
144
1.0
145
0.0
146
1.0
147
0.625
 71
     0
 72
     0
 73
     0
 74
     0
 75
     0
 76
     0
 77
     1
 78
     8
170
     0
171
     3
172
     1
173
     0
174
     0
175
     0
176
     0
177
     0
178
     0
  0
DIMSTYLE
  2
SLDDIMSTYLE0
 70
     0
  3

  4

  5

  6

  7

 40
1.0
 41
4.0
 42
0.0625
 43
0.38
 44
0.0
 45
0.000000001
 46
0.0
 47
0.0
 48
0.0
140
2.9104166667
141
0.09
142
0.0
143
25.4
144
1.0
145
0.0
146
1.0
147
0.7276041667
 71
     0
 72
     0
 73
     0
 74
     0
 75
     0
 76
     0
 77
     1
 78
    12
170
     0
171
     2
172
     1
173
     1
174
     0
175
     0
176
     0
177
     0
178
     0
  0
DIMSTYLE
  2
SLDDIMSTYLE1
 70
     0
  3

  4

  5

  6

  7

 40
1.0
 41
4.0
 42
0.0625
 43
0.38
 44
0.0
 45
0.000000001
 46
0.0
 47
0.0
 48
0.0
140
2.9104166667
141
0.09
142
0.0
143
25.4
144
1.0
145
0.0
146
1.0
147
0.7276041667
 71
     0
 72
     0
 73
     0
 74
     0
 75
     0
 76
     0
 77
     1
 78
    12
170
     0
171
     2
172
     0
173
     1
174
     0
175
     0
176
     0
177
     0
178
     0
  0
ENDTAB
  0
ENDSEC
  0
SECTION
  2
BLOCKS
  0
BLOCK
  8
0
  2
$MODEL_SPACE
 70
     0
 10
0.0
 20
0.0
 30
0.0
  3
$MODEL_SPACE
  1

  0
ENDBLK
  5
21
  8
0
  0
BLOCK
 67
     1
  8
0
  2
$PAPER_SPACE
 70
     0
 10
0.0
 20
0.0
 30
0.0
  3
$PAPER_SPACE
  1

  0
ENDBLK
  5
1D
 67
     1
  8
0
  0
BLOCK
  8
0
  2
SW_NOTE_0
 70
     0
 10
0.0
 20
0.0
 30
0.0
  3
SW_NOTE_0
  1

  0
TEXT
  5
76
  8
0
  6
CONTINUOUS
 62
     0
 10
0.0
 20
1.6824010449
 30
0.0
 40
4.7625
  1
Wendeplatte BP0502
 41
0.7
 11
0.0
 21
0.0
 31
0.0
 73
     1
  0
TEXT
  5
77
  8
0
  6
CONTINUOUS
 62
     0
 10
0.0
 20
-5.6675990423
 30
0.0
 40
4.7625
  1
Spannschraube SS1,8-1
 41
0.7
 11
0.0
 21
-7.3500000872
 31
0.0
 73
     1
  0
ENDBLK
  5
75
  8
0
  0
BLOCK
  8
0
  2
SW_NOTE_1
 70
     0
 10
0.0
 20
0.0
 30
0.0
  3
SW_NOTE_1
  1

  0
TEXT
  5
7C
  8
0
  6
CONTINUOUS
 62
     0
 10
-0.9346672472
 20
0.0
 30
0.0
 40
2.6458333333
  1
Z=2
 50
90.0
 41
0.7
 11
0.0
 21
0.0
 31
0.0
 73
     1
  0
TEXT
  5
7D
  8
0
  6
CONTINUOUS
 62
     0
 10
3.5931106519
 20
0.0
 30
0.0
 40
2.6458333333
  1
Zeff=1
 50
90.0
 41
0.7
 11
4.5277778991
 21
0.0
 31
0.0
 73
     1
  0
ENDBLK
  5
7B
  8
0
  0
BLOCK
  8
0
  2
_D
 70
     0
 10
0.0
 20
0.0
 30
0.0
  3
_D
  1

  0
SOLID
  5
3F4
  8
0
  6
CONTINUOUS
 62
     7
 10
71.7840214543
 20
127.1943749991
 30
0.0
 11
72.5340214543
 21
131.1943749991
 31
0.0
 12
71.0340214543
 22
131.1943749991
 32
0.0
 13
71.0340214543
 23
131.1943749991
 33
0.0
  0
SOLID
  5
3F5
  8
0
  6
CONTINUOUS
 62
     7
 10
71.7840214543
 20
110.1943749991
 30
0.0
 11
71.0340214543
 21
106.1943749991
 31
0.0
 12
72.5340214543
 22
106.1943749991
 32
0.0
 13
72.5340214543
 23
106.1943749991
 33
0.0
  0
LINE
  5
3F6
  8
0
  6
CONTINUOUS
 62
     7
 10
74.652736313
 20
127.1943749991
 30
0.0
 11
70.7840214543
 21
127.1943749991
 31
0.0
  0
LINE
  5
3F7
  8
0
  6
CONTINUOUS
 62
     7
 10
75.8789627664
 20
110.1943749991
 30
0.0
 11
70.7840214543
 21
110.1943749991
 31
0.0
  0
LINE
  5
3F8
  8
0
  6
CONTINUOUS
 62
     7
 10
71.7840214543
 20
127.1943749991
 30
0.0
 11
71.7840214543
 21
133.1943749991
 31
0.0
  0
LINE
  5
3F9
  8
0
  6
CONTINUOUS
 62
     7
 10
71.7840214543
 20
127.1943749991
 30
0.0
 11
71.7840214543
 21
110.1943749991
 31
0.0
  0
LINE
  5
3FA
  8
0
  6
CONTINUOUS
 62
     7
 10
71.7840214543
 20
110.1943749991
 30
0.0
 11
71.7840214543
 21
104.1943749991
 31
0.0
  0
TEXT
  5
3FB
  8
0
  6
CONTINUOUS
 62
     7
 10
70.7558872496
 20
114.3181481163
 30
0.0
 40
2.9104166667
  1
%%c
 50
90.0
 41
0.7
 11
71.7840212215
 21
114.3181481163
 31
0.0
 73
     1
  0
TEXT
  5
3FC
  8
0
  6
CONTINUOUS
 62
     7
 10
70.7558872496
 20
118.7112604964
 30
0.0
 40
2.9104166667
  1
17
 50
90.0
 41
0.7
 11
71.7840212215
 21
118.7112604964
 31
0.0
 73
     1
  0
ENDBLK
  5
3F3
  8
0
  0
BLOCK
  8
0
  2
_D_1
 70
     0
 10
0.0
 20
0.0
 30
0.0
  3
_D_1
  1

  0
SOLID
  5
402
  8
0
  6
CONTINUOUS
 62
     7
 10
79.5135505608
 20
76.5696744781
 30
0.0
 11
83.5135505608
 21
75.8196744781
 31
0.0
 12
83.5135505608
 22
77.3196744781
 32
0.0
 13
83.5135505608
 23
77.3196744781
 33
0.0
  0
SOLID
  5
403
  8
0
  6
CONTINUOUS
 62
     7
 10
207.5140049508
 20
76.5696744781
 30
0.0
 11
203.5140049508
 21
77.3196744781
 31
0.0
 12
203.5140049508
 22
75.8196744781
 32
0.0
 13
203.5140049508
 23
75.8196744781
 33
0.0
  0
LINE
  5
404
  8
0
  6
CONTINUOUS
 62
     7
 10
79.5135505608
 20
104.1318430573
 30
0.0
 11
79.5135505608
 21
75.5696744781
 31
0.0
  0
LINE
  5
405
  8
0
  6
CONTINUOUS
 62
     7
 10
207.5140049508
 20
111.6136285339
 30
0.0
 11
207.5140049508
 21
75.5696744781
 31
0.0
  0
LINE
  5
406
  8
0
  6
CONTINUOUS
 62
     7
 10
79.5135505608
 20
76.5696744781
 30
0.0
 11
207.5140049508
 21
76.5696744781
 31
0.0
  0
TEXT
  5
407
  8
0
  6
CONTINUOUS
 62
     7
 10
143.9249294932
 20
77.5978084499
 30
0.0
 40
2.9104166667
  1
128
 41
0.7
 11
143.9249294932
 21
76.5696744781
 31
0.0
 73
     1
  0
ENDBLK
  5
401
  8
0
  0
BLOCK
  8
0
  2
_D_2
 70
     0
 10
0.0
 20
0.0
 30
0.0
  3
_D_2
  1

  0
SOLID
  5
40C
  8
0
  6
CONTINUOUS
 62
     7
 10
157.5140049508
 20
87.5447343555
 30
0.0
 11
153.5140049508
 21
88.2947343555
 31
0.0
 12
153.5140049508
 22
86.7947343555
 32
0.0
 13
153.5140049508
 23
86.7947343555
 33
0.0
  0
SOLID
  5
40D
  8
0
  6
CONTINUOUS
 62
     7
 10
79.5135505608
 20
87.5447343555
 30
0.0
 11
83.5135505608
 21
86.7947343555
 31
0.0
 12
83.5135505608
 22
88.2947343555
 32
0.0
 13
83.5135505608
 23
88.2947343555
 33
0.0
  0
LINE
  5
40E
  8
0
  6
CONTINUOUS
 62
     7
 10
157.5140049508
 20
103.1931021953
 30
0.0
 11
157.5140049508
 21
86.5447343555
 31
0.0
  0
LINE
  5
40F
  8
0
  6
CONTINUOUS
 62
     7
 10
79.5135505608
 20
104.1318430573
 30
0.0
 11
79.5135505608
 21
86.5447343555
 31
0.0
  0
LINE
  5
410
  8
0
  6
CONTINUOUS
 62
     7
 10
157.5140049508
 20
87.5447343555
 30
0.0
 11
79.5135505608
 21
87.5447343555
 31
0.0
  0
TEXT
  5
411
  8
0
  6
CONTINUOUS
 62
     7
 10
117.666799635
 20
88.5728683274
 30
0.0
 40
2.9104166667
  1
78
 50
0.0
 41
0.7
 11
117.666799635
 21
87.5447343555
 31
0.0
 73
     1
  0
ENDBLK
  5
40B
  8
0
  0
BLOCK
  8
0
  2
_D_3
 70
     0
 10
0.0
 20
0.0
 30
0.0
  3
_D_3
  1

  0
SOLID
  5
416
  8
0
  6
CONTINUOUS
 62
     7
 10
79.5135505608
 20
99.5881108724
 30
0.0
 11
83.5135505608
 21
98.8381108724
 31
0.0
 12
83.5135505608
 22
100.3381108724
 32
0.0
 13
83.5135505608
 23
100.3381108724
 33
0.0
  0
SOLID
  5
417
  8
0
  6
CONTINUOUS
 62
     7
 10
130.5135505608
 20
99.5881108724
 30
0.0
 11
126.5135505608
 21
100.3381108724
 31
0.0
 12
126.5135505608
 22
98.8381108724
 32
0.0
 13
126.5135505608
 23
98.8381108724
 33
0.0
  0
LINE
  5
418
  8
0
  6
CONTINUOUS
 62
     7
 10
79.5135505608
 20
104.1318430573
 30
0.0
 11
79.5135505608
 21
98.5881108724
 31
0.0
  0
LINE
  5
419
  8
0
  6
CONTINUOUS
 62
     7
 10
130.5135505608
 20
104.6726887466
 30
0.0
 11
130.5135505608
 21
98.5881108724
 31
0.0
  0
LINE
  5
41A
  8
0
  6
CONTINUOUS
 62
     7
 10
79.5135505608
 20
99.5881108724
 30
0.0
 11
130.5135505608
 21
99.5881108724
 31
0.0
  0
TEXT
  5
41B
  8
0
  6
CONTINUOUS
 62
     7
 10
103.5858903646
 20
100.6162448443
 30
0.0
 40
2.9104166667
  1
51
 41
0.7
 11
103.5858903646
 21
99.5881108724
 31
0.0
 73
     1
  0
ENDBLK
  5
415
  8
0
  0
BLOCK
  8
0
  2
_D_4
 70
     0
 10
0.0
 20
0.0
 30
0.0
  3
_D_4
  1

  0
SOLID
  5
420
  8
0
  6
CONTINUOUS
 62
     7
 10
225.1562050403
 20
133.6931021953
 30
0.0
 11
224.4062050403
 21
129.6931021953
 31
0.0
 12
225.9062050403
 22
129.6931021953
 32
0.0
 13
225.9062050403
 23
129.6931021953
 33
0.0
  0
SOLID
  5
421
  8
0
  6
CONTINUOUS
 62
     7
 10
225.1562050403
 20
103.6931021953
 30
0.0
 11
225.9062050403
 21
107.6931021953
 31
0.0
 12
224.4062050403
 22
107.6931021953
 32
0.0
 13
224.4062050403
 23
107.6931021953
 33
0.0
  0
LINE
  5
422
  8
0
  6
CONTINUOUS
 62
     7
 10
158.0140049508
 20
133.6931021953
 30
0.0
 11
226.1562050403
 21
133.6931021953
 31
0.0
  0
LINE
  5
423
  8
0
  6
CONTINUOUS
 62
     7
 10
158.0140049508
 20
103.6931021953
 30
0.0
 11
226.1562050403
 21
103.6931021953
 31
0.0
  0
LINE
  5
424
  8
0
  6
CONTINUOUS
 62
     7
 10
225.1562050403
 20
133.6931021953
 30
0.0
 11
225.1562050403
 21
103.6931021953
 31
0.0
  0
TEXT
  5
425
  8
0
  6
CONTINUOUS
 62
     7
 10
224.1280708355
 20
115.5445183476
 30
6.0090621718
 40
2.9104166667
  1
%%c
 50
90.0
 41
0.7
 11
225.1562048074
 21
115.5445183476
 31
6.0090621718
 73
     1
  0
TEXT
  5
426
  8
0
  6
CONTINUOUS
 62
     7
 10
224.1280708355
 20
119.9376307276
 30
6.0090621718
 40
2.9104166667
  1
30
 50
90.0
 41
0.7
 11
225.1562048074
 21
119.9376307276
 31
6.0090621718
 73
     1
  0
ENDBLK
  5
41F
  8
0
  0
BLOCK
  8
0
  2
_D_5
 70
     0
 10
0.0
 20
0.0
 30
0.0
  3
_D_5
  1

  0
SOLID
  5
42B
  8
0
  6
CONTINUOUS
 62
     7
 10
215.67895328
 20
108.6931021953
 30
0.0
 11
216.42895328
 21
112.6931021953
 31
0.0
 12
214.92895328
 22
112.6931021953
 32
0.0
 13
214.92895328
 23
112.6931021953
 33
0.0
  0
SOLID
  5
42C
  8
0
  6
CONTINUOUS
 62
     7
 10
215.67895328
 20
128.6931021953
 30
0.0
 11
214.92895328
 21
124.6931021953
 31
0.0
 12
216.42895328
 22
124.6931021953
 32
0.0
 13
216.42895328
 23
124.6931021953
 33
0.0
  0
LINE
  5
42D
  8
0
  6
CONTINUOUS
 62
     7
 10
206.2640049508
 20
108.6931021953
 30
0.0
 11
216.67895328
 21
108.6931021953
 31
0.0
  0
LINE
  5
42E
  8
0
  6
CONTINUOUS
 62
     7
 10
206.2640049508
 20
128.6931021953
 30
0.0
 11
216.67895328
 21
128.6931021953
 31
0.0
  0
LINE
  5
42F
  8
0
  6
CONTINUOUS
 62
     7
 10
215.67895328
 20
108.6931021953
 30
0.0
 11
215.67895328
 21
128.6931021953
 31
0.0
  0
TEXT
  5
430
  8
0
  6
CONTINUOUS
 62
     7
 10
214.6508190753
 20
112.0084193959
 30
6.0090621718
 40
2.9104166667
  1
%%c
 50
90.0
 41
0.7
 11
215.6789530472
 21
112.0084193959
 31
6.0090621718
 73
     1
  0
TEXT
  5
431
  8
0
  6
CONTINUOUS
 62
     7
 10
214.6508190753
 20
116.401531776
 30
6.0090621718
 40
2.9104166667
  1
20
 50
90.0
 41
0.7
 11
215.6789530472
 21
116.401531776
 31
6.0090621718
 73
     1
  0
TEXT
  5
432
  8
0
  6
CONTINUOUS
 62
     7
 10
214.6508190753
 20
120.7024814054
 30
6.0090621718
 40
2.9104166667
  1
h6
 50
90.0
 41
0.7
 11
215.6789530472
 21
120.7024814054
 31
6.0090621718
 73
     1
  0
ENDBLK
  5
42A
  8
0
  0
BLOCK
  8
0
  2
_D_6
 70
     0
 10
0.0
 20
0.0
 30
0.0
  3
_D_6
  1

  0
SOLID
  5
437
  8
0
  6
CONTINUOUS
 62
     7
 10
157.5140049508
 20
87.5447343555
 30
0.0
 11
161.5140049508
 21
86.7947343555
 31
0.0
 12
161.5140049508
 22
88.2947343555
 32
0.0
 13
161.5140049508
 23
88.2947343555
 33
0.0
  0
SOLID
  5
438
  8
0
  6
CONTINUOUS
 62
     7
 10
207.5140049508
 20
87.5447343555
 30
0.0
 11
203.5140049508
 21
88.2947343555
 31
0.0
 12
203.5140049508
 22
86.7947343555
 32
0.0
 13
203.5140049508
 23
86.7947343555
 33
0.0
  0
LINE
  5
439
  8
0
  6
CONTINUOUS
 62
     7
 10
157.5140049508
 20
103.1931021953
 30
0.0
 11
157.5140049508
 21
86.5447343555
 31
0.0
  0
LINE
  5
43A
  8
0
  6
CONTINUOUS
 62
     7
 10
207.5140049508
 20
111.6136285339
 30
0.0
 11
207.5140049508
 21
86.5447343555
 31
0.0
  0
LINE
  5
43B
  8
0
  6
CONTINUOUS
 62
     7
 10
157.5140049508
 20
87.5447343555
 30
0.0
 11
207.5140049508
 21
87.5447343555
 31
0.0
  0
TEXT
  5
43C
  8
0
  6
CONTINUOUS
 62
     7
 10
182.7892875677
 20
88.5728683274
 30
6.0090621718
 40
2.9104166667
  1
50
 41
0.7
 11
182.7892875677
 21
87.5447343555
 31
6.0090621718
 73
     1
  0
ENDBLK
  5
436
  8
0
  0
ENDSEC
  0
SECTION
  2
ENTITIES
  0
INSERT
  5
78
  8
0
  6
CONTINUOUS
 62
     7
  2
SW_NOTE_0
 10
118.7736512313
 20
62.1020770865
 30
0.0
  0
INSERT
  5
7E
  8
0
  6
CONTINUOUS
 62
     7
  2
SW_NOTE_1
 10
61.239637443
 20
115.0190401446
 30
0.0
  0
LINE
  5
7F
  8
0
  6
CONTINUOUS
 62
     7
 10
151.5140049508
 20
103.6931021953
 30
0.0
 11
157.0140049508
 21
103.6931021953
 31
0.0
  0
LINE
  5
80
  8
0
  6
CONTINUOUS
 62
     7
 10
157.0140049508
 20
133.6931021953
 30
0.0
 11
151.5140049508
 21
133.6931021953
 31
0.0
  0
LINE
  5
81
  8
0
  6
CONTINUOUS
 62
     7
 10
157.0140049508
 20
103.6931021953
 30
0.0
 11
157.5140049508
 21
104.1931021953
 31
0.0
  0
LINE
  5
82
  8
0
  6
CONTINUOUS
 62
     7
 10
157.5140049508
 20
133.1931021953
 30
0.0
 11
157.0140049508
 21
133.6931021953
 31
0.0
  0
LINE
  5
83
  8
0
  6
CONTINUOUS
 62
     7
 10
151.5140049508
 20
133.6931021953
 30
0.0
 11
140.7018955596
 21
127.8840303665
 31
0.0
  0
LINE
  5
84
  8
0
  6
CONTINUOUS
 62
     7
 10
140.7018955596
 20
109.5021740241
 30
0.0
 11
151.5140049508
 21
103.6931021953
 31
0.0
  0
LINE
  5
85
  8
0
  6
CONTINUOUS
 62
     7
 10
159.2435419399
 20
128.6931021953
 30
0.0
 11
158.7730789289
 21
128.5931021953
 31
0.0
  0
LINE
  5
86
  8
0
  6
CONTINUOUS
 62
     7
 10
158.7730789289
 20
108.7931021953
 30
0.0
 11
159.2435419399
 21
108.6931021953
 31
0.0
  0
LINE
  5
87
  8
0
  6
CONTINUOUS
 62
     7
 10
159.2435419399
 20
108.6931021953
 30
0.0
 11
205.2640049508
 21
108.6931021953
 31
0.0
  0
LINE
  5
88
  8
0
  6
CONTINUOUS
 62
     7
 10
205.2640049508
 20
128.6931021953
 30
0.0
 11
159.2435419399
 21
128.6931021953
 31
0.0
  0
LINE
  5
89
  8
0
  6
CONTINUOUS
 62
     7
 10
158.7730789289
 20
128.5931021953
 30
0.0
 11
157.5140049508
 21
128.5931021953
 31
0.0
  0
LINE
  5
8A
  8
0
  6
CONTINUOUS
 62
     7
 10
157.5140049508
 20
108.7931021953
 30
0.0
 11
158.7730789289
 21
108.7931021953
 31
0.0
  0
ARC
  5
8B
  8
0
  6
CONTINUOUS
 62
     7
 10
135.9690049508
 20
100.6931021953
 30
0.0
 40
10.0
 50
61.7519907075
 51
90.0
  0
LINE
  5
8C
  8
0
  6
CONTINUOUS
 62
     7
 10
205.2640049508
 20
108.6931021953
 30
0.0
 11
206.5140049508
 21
108.7931021953
 31
0.0
  0
LINE
  5
8D
  8
0
  6
CONTINUOUS
 62
     7
 10
206.5140049508
 20
128.5931021953
 30
0.0
 11
205.2640049508
 21
128.6931021953
 31
0.0
  0
LINE
  5
8E
  8
0
  6
CONTINUOUS
 62
     7
 10
120.6406399767
 20
110.6931021953
 30
0.0
 11
135.9690049508
 21
110.6931021953
 31
0.0
  0
LINE
  5
8F
  8
0
  6
CONTINUOUS
 62
     7
 10
206.5140049508
 20
108.7931021953
 30
0.0
 11
207.5140049508
 21
109.7931021953
 31
0.0
  0
LINE
  5
90
  8
0
  6
CONTINUOUS
 62
     7
 10
207.5140049508
 20
127.5931021953
 30
0.0
 11
206.5140049508
 21
128.5931021953
 31
0.0
  0
ARC
  5
91
  8
0
  6
CONTINUOUS
 62
     7
 10
135.9690049508
 20
136.6931021953
 30
0.0
 40
10.00000000000002
 50
270.0
 51
298.2480092925
  0
LINE
  5
92
  8
0
  6
CONTINUOUS
 62
     7
 10
135.9690049508
 20
126.6931021953
 30
0.0
 11
126.2637803212
 21
126.6931021953
 31
0.0
  0
LINE
  5
93
  8
0
  6
CONTINUOUS
 62
     7
 10
79.7131247447
 20
118.371813752
 30
0.0
 11
79.7268650526
 21
118.3758811111
 31
0.0
  0
LINE
  5
94
  8
0
  6
CONTINUOUS
 62
     7
 10
157.0140049508
 20
103.6931021953
 30
0.0
 11
157.0140049508
 21
133.6931021953
 31
0.0
  0
LINE
  5
95
  8
0
  6
CONTINUOUS
 62
     7
 10
151.5140049508
 20
103.6931021953
 30
0.0
 11
151.5140049508
 21
109.0004333389
 31
0.0
  0
ARC
  5
96
  8
0
  6
CONTINUOUS
 62
     7
 10
231.4997807582
 20
508.1261948947
 30
0.0
 40
407.0615406409205
 50
258.667898073
 51
259.109047106
  0
ARC
  5
97
  8
0
  6
CONTINUOUS
 62
     7
 10
155.1323723818
 20
110.1314560052
 30
0.0
 40
1.818008506022761
 50
252.6231773855
 51
334.6232135694
  0
POLYLINE
  5
98
  8
0
  6
CONTINUOUS
 62
     7
 66
     1
 10
0.0
 20
0.0
 30
0.0
 70
   128
  0
VERTEX
  5
43E
  8
0
  6
CONTINUOUS
 62
     7
 10
153.0839945965
 20
121.9639229688
 30
0.0
  0
VERTEX
  5
43F
  8
0
  6
CONTINUOUS
 62
     7
 10
153.9605337527
 20
120.6467965123
 30
0.0
  0
VERTEX
  5
440
  8
0
  6
CONTINUOUS
 62
     7
 10
154.7366039827
 20
119.3141343343
 30
0.0
  0
VERTEX
  5
441
  8
0
  6
CONTINUOUS
 62
     7
 10
155.4060339984
 20
117.9765337266
 30
0.0
  0
VERTEX
  5
442
  8
0
  6
CONTINUOUS
 62
     7
 10
155.9635005113
 20
116.6446312508
 30
0.0
  0
VERTEX
  5
443
  8
0
  6
CONTINUOUS
 62
     7
 10
156.4045705638
 20
115.3290181574
 30
0.0
  0
VERTEX
  5
444
  8
0
  6
CONTINUOUS
 62
     7
 10
156.7257367793
 20
114.0401561641
 30
0.0
  0
VERTEX
  5
445
  8
0
  6
CONTINUOUS
 62
     7
 10
156.9244452533
 20
112.7882942646
 30
0.0
  0
VERTEX
  5
446
  8
0
  6
CONTINUOUS
 62
     7
 10
156.9991158617
 20
111.5833872289
 30
0.0
  0
VERTEX
  5
447
  8
0
  6
CONTINUOUS
 62
     7
 10
156.949154826
 20
110.4350164434
 30
0.0
  0
VERTEX
  5
448
  8
0
  6
CONTINUOUS
 62
     7
 10
156.7749594348
 20
109.3523137196
 30
0.0
  0
SEQEND
  5
5DE
  8
0
  6
CONTINUOUS
 62
     7
  0
LINE
  5
99
  8
0
  6
CONTINUOUS
 62
     7
 10
151.5140049508
 20
122.7300840623
 30
0.0
 11
153.0839945965
 21
121.9639229688
 31
0.0
  0
LINE
  5
9A
  8
0
  6
CONTINUOUS
 62
     7
 10
151.5140049508
 20
122.7300840623
 30
0.0
 11
151.5140049508
 21
133.6931021953
 31
0.0
  0
LINE
  5
9B
  8
0
  6
CONTINUOUS
 62
     7
 10
157.5140049508
 20
133.1931021953
 30
0.0
 11
157.5140049508
 21
104.1931021953
 31
0.0
  0
LINE
  5
9C
  8
0
  6
CONTINUOUS
 62
     7
 10
156.7749594348
 20
109.3523137196
 30
0.0
 11
145.052726263
 21
118.3071676129
 31
0.0
  0
LINE
  5
9D
  8
0
  6
CONTINUOUS
 62
     7
 10
144.6970177935
 20
126.6632727195
 30
0.0
 11
145.0527262633
 21
118.3071676085
 31
0.0
  0
ARC
  5
9E
  8
0
  6
CONTINUOUS
 62
     7
 10
139.715181869
 20
104.4774583974
 30
0.0
 40
22.73827271799779
 50
67.1492902047
 51
77.3441317686
  0
POLYLINE
  5
9F
  8
0
  6
CONTINUOUS
 62
     7
 66
     1
 10
0.0
 20
0.0
 30
0.0
 70
   128
  0
VERTEX
  5
449
  8
0
  6
CONTINUOUS
 62
     7
 10
143.9353589269
 20
126.6702054931
 30
0.0
  0
VERTEX
  5
44A
  8
0
  6
CONTINUOUS
 62
     7
 10
142.3279229756
 20
126.3778631428
 30
0.0
  0
VERTEX
  5
44B
  8
0
  6
CONTINUOUS
 62
     7
 10
140.7018955596
 20
125.9952742799
 30
0.0
  0
SEQEND
  5
5DF
  8
0
  6
CONTINUOUS
 62
     7
  0
LINE
  5
A0
  8
0
  6
CONTINUOUS
 62
     7
 10
144.6970177939
 20
126.6632727168
 30
0.0
 11
143.9353589263
 21
126.670205493
 31
0.0
  0
POLYLINE
  5
A1
  8
0
  6
CONTINUOUS
 62
     7
 66
     1
 10
0.0
 20
0.0
 30
0.0
 70
   128
  0
VERTEX
  5
44C
  8
0
  6
CONTINUOUS
 62
     7
 10
148.5451656059
 20
125.431227352
 30
0.0
  0
VERTEX
  5
44D
  8
0
  6
CONTINUOUS
 62
     7
 10
149.9467536494
 20
124.0863043155
 30
0.0
  0
VERTEX
  5
44E
  8
0
  6
CONTINUOUS
 62
     7
 10
151.5140049508
 20
122.7300840623
 30
0.0
  0
SEQEND
  5
5E0
  8
0
  6
CONTINUOUS
 62
     7
  0
LINE
  5
A2
  8
0
  6
CONTINUOUS
 62
     7
 10
154.5894154934
 20
108.3964191914
 30
0.0
 11
144.3640049508
 21
116.2078196358
 31
0.0
  0
LINE
  5
A3
  8
0
  6
CONTINUOUS
 62
     7
 10
144.3640049508
 20
118.0241344434
 30
0.0
 11
144.3640049508
 21
116.2078196358
 31
0.0
  0
LINE
  5
A4
  8
0
  6
CONTINUOUS
 62
     7
 10
145.052726263
 20
118.3071676129
 30
0.0
 11
144.364004892
 21
118.0241344055
 31
0.0
  0
POLYLINE
  5
A5
  8
0
  6
CONTINUOUS
 62
     7
 66
     1
 10
0.0
 20
0.0
 30
0.0
 70
   128
  0
VERTEX
  5
44F
  8
0
  6
CONTINUOUS
 62
     7
 10
140.7018955596
 20
114.7882214818
 30
0.0
  0
VERTEX
  5
450
  8
0
  6
CONTINUOUS
 62
     7
 10
142.538021208
 20
113.7559879685
 30
0.0
  0
VERTEX
  5
451
  8
0
  6
CONTINUOUS
 62
     7
 10
144.3640049508
 20
112.6355113612
 30
0.0
  0
SEQEND
  5
5E1
  8
0
  6
CONTINUOUS
 62
     7
  0
LINE
  5
A6
  8
0
  6
CONTINUOUS
 62
     7
 10
151.5140049508
 20
109.0004333389
 30
0.0
 11
144.3640049508
 21
112.6355113612
 31
0.0
  0
LINE
  5
A7
  8
0
  6
CONTINUOUS
 62
     7
 10
144.3640049508
 20
116.2078196358
 30
0.0
 11
144.3640049508
 21
112.6355113612
 31
0.0
  0
LINE
  5
A8
  8
0
  6
CONTINUOUS
 62
     7
 10
159.2435419399
 20
128.6931021953
 30
0.0
 11
159.2435419399
 21
108.6931021953
 31
0.0
  0
LINE
  5
A9
  8
0
  6
CONTINUOUS
 62
     7
 10
158.7730789289
 20
128.5931021953
 30
0.0
 11
158.7730789289
 21
108.7931021953
 31
0.0
  0
LINE
  5
AA
  8
0
  6
CONTINUOUS
 62
     7
 10
205.2640049508
 20
124.6931021953
 30
0.0
 11
205.2640049508
 21
128.6931021953
 31
0.0
  0
LINE
  5
AB
  8
0
  6
CONTINUOUS
 62
     7
 10
205.2640049508
 20
108.6931021953
 30
0.0
 11
205.2640049508
 21
112.6931021953
 31
0.0
  0
LINE
  5
AC
  8
0
  6
CONTINUOUS
 62
     7
 10
205.2640049508
 20
124.6931021953
 30
0.0
 11
163.5140049508
 21
124.6931021953
 31
0.0
  0
ARC
  5
AD
  8
0
  6
CONTINUOUS
 62
     7
 10
171.5140049508
 20
118.6931021953
 30
0.0
 40
10.00000000000006
 50
143.1301023542
 51
216.8698976458
  0
LINE
  5
AE
  8
0
  6
CONTINUOUS
 62
     7
 10
163.5140049508
 20
112.6931021953
 30
0.0
 11
205.2640049508
 21
112.6931021953
 31
0.0
  0
LINE
  5
AF
  8
0
  6
CONTINUOUS
 62
     7
 10
163.5140049508
 20
112.6931021953
 30
0.0
 11
163.5140049508
 21
124.6931021953
 31
0.0
  0
ARC
  5
B0
  8
0
  6
CONTINUOUS
 62
     7
 10
130.4800450115
 20
94.9623229985
 30
0.0
 40
22.30588440970726
 50
62.72524192
 51
75.7545237171
  0
POLYLINE
  5
B1
  8
0
  6
CONTINUOUS
 62
     7
 66
     1
 10
0.0
 20
0.0
 30
0.0
 70
   128
  0
VERTEX
  5
452
  8
0
  6
CONTINUOUS
 62
     7
 10
88.2640049508
 20
126.6266393039
 30
0.0
  0
VERTEX
  5
453
  8
0
  6
CONTINUOUS
 62
     7
 10
93.3969395052
 20
126.3043979783
 30
0.0
  0
VERTEX
  5
454
  8
0
  6
CONTINUOUS
 62
     7
 10
98.8656894502
 20
125.6796369318
 30
0.0
  0
VERTEX
  5
455
  8
0
  6
CONTINUOUS
 62
     7
 10
103.7038257213
 20
124.9035572896
 30
0.0
  0
VERTEX
  5
456
  8
0
  6
CONTINUOUS
 62
     7
 10
106.3502746552
 20
124.3977749745
 30
0.0
  0
VERTEX
  5
457
  8
0
  6
CONTINUOUS
 62
     7
 10
110.3262754547
 20
123.5435347672
 30
0.0
  0
VERTEX
  5
458
  8
0
  6
CONTINUOUS
 62
     7
 10
114.6469014791
 20
122.5061931053
 30
0.0
  0
VERTEX
  5
459
  8
0
  6
CONTINUOUS
 62
     7
 10
119.6460372193
 20
121.1922294368
 30
0.0
  0
VERTEX
  5
45A
  8
0
  6
CONTINUOUS
 62
     7
 10
123.7107846903
 20
120.0623860194
 30
0.0
  0
VERTEX
  5
45B
  8
0
  6
CONTINUOUS
 62
     7
 10
126.425984162
 20
119.2911577889
 30
0.0
  0
VERTEX
  5
45C
  8
0
  6
CONTINUOUS
 62
     7
 10
130.5088668717
 20
118.1235180092
 30
0.0
  0
VERTEX
  5
45D
  8
0
  6
CONTINUOUS
 62
     7
 10
135.9690049508
 20
116.5823090781
 30
0.0
  0
SEQEND
  5
5E2
  8
0
  6
CONTINUOUS
 62
     7
  0
LINE
  5
B2
  8
0
  6
CONTINUOUS
 62
     7
 10
144.364004936
 20
118.0241344435
 30
0.0
 11
143.4492393434
 21
118.9755931768
 31
0.0
  0
POLYLINE
  5
B3
  8
0
  6
CONTINUOUS
 62
     7
 66
     1
 10
0.0
 20
0.0
 30
0.0
 70
   128
  0
VERTEX
  5
45E
  8
0
  6
CONTINUOUS
 62
     7
 10
143.4401982355
 20
118.9842220009
 30
0.0
  0
VERTEX
  5
45F
  8
0
  6
CONTINUOUS
 62
     7
 10
143.7052476246
 20
122.8416994859
 30
0.0
  0
VERTEX
  5
460
  8
0
  6
CONTINUOUS
 62
     7
 10
143.9353596273
 20
126.6702035548
 30
0.0
  0
SEQEND
  5
5E3
  8
0
  6
CONTINUOUS
 62
     7
  0
POLYLINE
  5
B4
  8
0
  6
CONTINUOUS
 62
     7
 66
     1
 10
0.0
 20
0.0
 30
0.0
 70
   128
  0
VERTEX
  5
461
  8
0
  6
CONTINUOUS
 62
     7
 10
206.0140049508
 20
112.7936445931
 30
0.0
  0
VERTEX
  5
462
  8
0
  6
CONTINUOUS
 62
     7
 10
205.4609831273
 20
112.7194029025
 30
0.0
  0
VERTEX
  5
463
  8
0
  6
CONTINUOUS
 62
     7
 10
205.2640049508
 20
112.6931021953
 30
0.0
  0
SEQEND
  5
5E4
  8
0
  6
CONTINUOUS
 62
     7
  0
ARC
  5
B5
  8
0
  6
CONTINUOUS
 62
     7
 10
213.240099869
 20
118.7106013178
 30
0.0
 40
9.339530215614856
 50
219.3117095876
 51
223.9310804443
  0
LINE
  5
B6
  8
0
  6
CONTINUOUS
 62
     7
 10
206.5140049508
 20
125.1552999639
 30
0.0
 11
206.5140049508
 21
128.5931021953
 31
0.0
  0
LINE
  5
B7
  8
0
  6
CONTINUOUS
 62
     7
 10
206.5140049508
 20
108.7931021953
 30
0.0
 11
206.5140049508
 21
112.2309044267
 31
0.0
  0
ARC
  5
B8
  8
0
  6
CONTINUOUS
 62
     7
 10
213.240099869
 20
118.6756030728
 30
0.0
 40
9.33953021562837
 50
136.0689195557
 51
140.6882904124
  0
POLYLINE
  5
B9
  8
0
  6
CONTINUOUS
 62
     7
 66
     1
 10
0.0
 20
0.0
 30
0.0
 70
   128
  0
VERTEX
  5
464
  8
0
  6
CONTINUOUS
 62
     7
 10
205.2640049508
 20
124.6931021953
 30
0.0
  0
VERTEX
  5
465
  8
0
  6
CONTINUOUS
 62
     7
 10
205.4609831273
 20
124.6668014881
 30
0.0
  0
VERTEX
  5
466
  8
0
  6
CONTINUOUS
 62
     7
 10
206.0140049508
 20
124.5925597975
 30
0.0
  0
SEQEND
  5
5E5
  8
0
  6
CONTINUOUS
 62
     7
  0
LINE
  5
BA
  8
0
  6
CONTINUOUS
 62
     7
 10
80.3065312062
 20
126.6266393039
 30
0.0
 11
88.2640049508
 21
126.6266393039
 31
0.0
  0
POLYLINE
  5
BB
  8
0
  6
CONTINUOUS
 62
     7
 66
     1
 10
0.0
 20
0.0
 30
0.0
 70
   128
  0
VERTEX
  5
467
  8
0
  6
CONTINUOUS
 62
     7
 10
88.7152424454
 20
116.7477417387
 30
0.0
  0
VERTEX
  5
468
  8
0
  6
CONTINUOUS
 62
     7
 10
88.2644340346
 20
116.8554740529
 30
0.0
  0
VERTEX
  5
469
  8
0
  6
CONTINUOUS
 62
     7
 10
87.7896905283
 20
116.8931021953
 30
0.0
  0
SEQEND
  5
5E6
  8
0
  6
CONTINUOUS
 62
     7
  0
LINE
  5
BC
  8
0
  6
CONTINUOUS
 62
     7
 10
87.7896905283
 20
116.8931021953
 30
0.0
 11
80.2640049508
 21
116.8931021953
 31
0.0
  0
LINE
  5
BD
  8
0
  6
CONTINUOUS
 62
     7
 10
80.2640049508
 20
116.8931021953
 30
0.0
 11
80.2640049508
 21
126.3661694867
 31
0.0
  0
ARC
  5
BE
  8
0
  6
CONTINUOUS
 62
     7
 10
77.426398854
 20
126.9631648205
 30
0.0
 40
2.899726157660981
 50
348.1189875499
 51
353.3355642543
  0
POLYLINE
  5
BF
  8
0
  6
CONTINUOUS
 62
     7
 66
     1
 10
0.0
 20
0.0
 30
0.0
 70
   128
  0
VERTEX
  5
46A
  8
0
  6
CONTINUOUS
 62
     7
 10
82.1259021102
 20
120.9986908948
 30
0.0
  0
VERTEX
  5
46B
  8
0
  6
CONTINUOUS
 62
     7
 10
82.3777151027
 20
120.956778247
 30
0.0
  0
VERTEX
  5
46C
  8
0
  6
CONTINUOUS
 62
     7
 10
82.600911622
 20
120.837728545
 30
0.0
  0
VERTEX
  5
46D
  8
0
  6
CONTINUOUS
 62
     7
 10
82.7798168671
 20
120.6498212224
 30
0.0
  0
VERTEX
  5
46E
  8
0
  6
CONTINUOUS
 62
     7
 10
82.8957315709
 20
120.4005258985
 30
0.0
  0
VERTEX
  5
46F
  8
0
  6
CONTINUOUS
 62
     7
 10
82.9235702064
 20
120.1158244197
 30
0.0
  0
VERTEX
  5
470
  8
0
  6
CONTINUOUS
 62
     7
 10
82.8528475642
 20
119.8378740121
 30
0.0
  0
VERTEX
  5
471
  8
0
  6
CONTINUOUS
 62
     7
 10
82.6954199768
 20
119.6065427658
 30
0.0
  0
VERTEX
  5
472
  8
0
  6
CONTINUOUS
 62
     7
 10
82.4752875672
 20
119.446627575
 30
0.0
  0
VERTEX
  5
473
  8
0
  6
CONTINUOUS
 62
     7
 10
82.2189634986
 20
119.3708506423
 30
0.0
  0
VERTEX
  5
474
  8
0
  6
CONTINUOUS
 62
     7
 10
81.9541097085
 20
119.384233615
 30
0.0
  0
VERTEX
  5
475
  8
0
  6
CONTINUOUS
 62
     7
 10
81.7090575262
 20
119.4839402011
 30
0.0
  0
VERTEX
  5
476
  8
0
  6
CONTINUOUS
 62
     7
 10
81.5099921481
 20
119.658559897
 30
0.0
  0
VERTEX
  5
477
  8
0
  6
CONTINUOUS
 62
     7
 10
81.3776604204
 20
119.8896498818
 30
0.0
  0
VERTEX
  5
478
  8
0
  6
CONTINUOUS
 62
     7
 10
81.3262261203
 20
120.1548679953
 30
0.0
  0
VERTEX
  5
479
  8
0
  6
CONTINUOUS
 62
     7
 10
81.3645274706
 20
120.4291329318
 30
0.0
  0
VERTEX
  5
47A
  8
0
  6
CONTINUOUS
 62
     7
 10
81.4950999836
 20
120.6818136703
 30
0.0
  0
VERTEX
  5
47B
  8
0
  6
CONTINUOUS
 62
     7
 10
81.7058480645
 20
120.8759455303
 30
0.0
  0
VERTEX
  5
47C
  8
0
  6
CONTINUOUS
 62
     7
 10
81.9621569272
 20
120.9812312659
 30
0.0
  0
VERTEX
  5
47D
  8
0
  6
CONTINUOUS
 62
     7
 10
82.1259021102
 20
120.9986908948
 30
0.0
  0
SEQEND
  5
5E7
  8
0
  6
CONTINUOUS
 62
     7
  0
POLYLINE
  5
C0
  8
0
  6
CONTINUOUS
 62
     7
 66
     1
 10
0.0
 20
0.0
 30
0.0
 70
   128
  0
VERTEX
  5
47E
  8
0
  6
CONTINUOUS
 62
     7
 10
120.6406399767
 20
110.6948766377
 30
0.0
  0
VERTEX
  5
47F
  8
0
  6
CONTINUOUS
 62
     7
 10
115.3712735489
 20
110.8844386678
 30
0.0
  0
VERTEX
  5
480
  8
0
  6
CONTINUOUS
 62
     7
 10
112.1677378166
 20
111.1845224535
 30
0.0
  0
VERTEX
  5
481
  8
0
  6
CONTINUOUS
 62
     7
 10
107.8814756473
 20
111.7923530283
 30
0.0
  0
VERTEX
  5
482
  8
0
  6
CONTINUOUS
 62
     7
 10
103.4294013679
 20
112.6533949532
 30
0.0
  0
VERTEX
  5
483
  8
0
  6
CONTINUOUS
 62
     7
 10
100.894557926
 20
113.2373962919
 30
0.0
  0
VERTEX
  5
484
  8
0
  6
CONTINUOUS
 62
     7
 10
98.1511807276
 20
113.936995832
 30
0.0
  0
VERTEX
  5
485
  8
0
  6
CONTINUOUS
 62
     7
 10
95.7972445131
 20
114.5865282365
 30
0.0
  0
VERTEX
  5
486
  8
0
  6
CONTINUOUS
 62
     7
 10
93.4404953085
 20
115.2757289758
 30
0.0
  0
VERTEX
  5
487
  8
0
  6
CONTINUOUS
 62
     7
 10
91.0798339642
 20
115.9983526033
 30
0.0
  0
VERTEX
  5
488
  8
0
  6
CONTINUOUS
 62
     7
 10
88.7152424454
 20
116.7477417387
 30
0.0
  0
SEQEND
  5
5E8
  8
0
  6
CONTINUOUS
 62
     7
  0
LINE
  5
C1
  8
0
  6
CONTINUOUS
 62
     7
 10
206.0140049508
 20
112.7936445931
 30
0.0
 11
206.0140049508
 21
124.5925597975
 31
0.0
  0
LINE
  5
C2
  8
0
  6
CONTINUOUS
 62
     7
 10
206.5140049508
 20
125.1552999639
 30
0.0
 11
207.5140049508
 21
124.7725758567
 31
0.0
  0
LINE
  5
C3
  8
0
  6
CONTINUOUS
 62
     7
 10
207.5140049508
 20
112.6136285339
 30
0.0
 11
207.5140049508
 21
124.7725758567
 31
0.0
  0
POLYLINE
  5
C4
  8
0
  6
CONTINUOUS
 62
     7
 66
     1
 10
0.0
 20
0.0
 30
0.0
 70
   128
  0
VERTEX
  5
489
  8
0
  6
CONTINUOUS
 62
     7
 10
207.5140049508
 20
112.6136285339
 30
0.0
  0
VERTEX
  5
48A
  8
0
  6
CONTINUOUS
 62
     7
 10
207.014540693
 20
112.4195522882
 30
0.0
  0
VERTEX
  5
48B
  8
0
  6
CONTINUOUS
 62
     7
 10
206.5140049508
 20
112.2309044267
 30
0.0
  0
SEQEND
  5
5E9
  8
0
  6
CONTINUOUS
 62
     7
  0
LINE
  5
C5
  8
0
  6
CONTINUOUS
 62
     7
 10
80.2640049508
 20
116.8931021953
 30
0.0
 11
79.7640049508
 21
116.8931021953
 31
0.0
  0
LINE
  5
C6
  8
0
  6
CONTINUOUS
 62
     7
 10
79.7640049508
 20
116.8931021953
 30
0.0
 11
79.7640049508
 21
120.0359087796
 31
0.0
  0
LINE
  5
C7
  8
0
  6
CONTINUOUS
 62
     7
 10
79.7640049508
 20
120.0359087796
 30
0.0
 11
80.0264871705
 21
123.5099407092
 31
0.0
  0
LINE
  5
C8
  8
0
  6
CONTINUOUS
 62
     7
 10
80.0264871705
 20
123.5099407092
 30
0.0
 11
80.0042740319
 21
123.5837801996
 31
0.0
  0
LINE
  5
C9
  8
0
  6
CONTINUOUS
 62
     7
 10
80.0042740319
 20
123.5837801996
 30
0.0
 11
80.007837044
 21
123.8157369054
 31
0.0
  0
LINE
  5
CA
  8
0
  6
CONTINUOUS
 62
     7
 10
80.007837044
 20
123.8157369054
 30
0.0
 11
80.2435867355
 21
126.4026930613
 31
0.0
  0
LINE
  5
CB
  8
0
  6
CONTINUOUS
 62
     7
 10
80.2435867355
 20
126.4026930613
 30
0.0
 11
80.2640049508
 21
126.3661694867
 31
0.0
  0
POLYLINE
  5
CC
  8
0
  6
CONTINUOUS
 62
     7
 66
     1
 10
0.0
 20
0.0
 30
0.0
 70
   128
  0
VERTEX
  5
48C
  8
0
  6
CONTINUOUS
 62
     7
 10
80.2258282362
 20
117.301060742
 30
0.0
  0
VERTEX
  5
48D
  8
0
  6
CONTINUOUS
 62
     7
 10
80.2162476124
 20
117.1950294214
 30
0.0
  0
VERTEX
  5
48E
  8
0
  6
CONTINUOUS
 62
     7
 10
80.2046803925
 20
117.1096828749
 30
0.0
  0
VERTEX
  5
48F
  8
0
  6
CONTINUOUS
 62
     7
 10
80.1920252842
 20
117.0521568787
 30
0.0
  0
VERTEX
  5
490
  8
0
  6
CONTINUOUS
 62
     7
 10
80.17784396
 20
117.0207380467
 30
0.0
  0
VERTEX
  5
491
  8
0
  6
CONTINUOUS
 62
     7
 10
80.163224667
 20
117.0180396997
 30
0.0
  0
VERTEX
  5
492
  8
0
  6
CONTINUOUS
 62
     7
 10
80.1477379832
 20
117.0440677205
 30
0.0
  0
VERTEX
  5
493
  8
0
  6
CONTINUOUS
 62
     7
 10
80.1326271798
 20
117.096787009
 30
0.0
  0
VERTEX
  5
494
  8
0
  6
CONTINUOUS
 62
     7
 10
80.117509692
 20
117.1776966168
 30
0.0
  0
VERTEX
  5
495
  8
0
  6
CONTINUOUS
 62
     7
 10
80.1037036346
 20
117.280035835
 30
0.0
  0
VERTEX
  5
496
  8
0
  6
CONTINUOUS
 62
     7
 10
80.0908982098
 20
117.4067979899
 30
0.0
  0
VERTEX
  5
497
  8
0
  6
CONTINUOUS
 62
     7
 10
80.0803110733
 20
117.5469080382
 30
0.0
  0
VERTEX
  5
498
  8
0
  6
CONTINUOUS
 62
     7
 10
80.0717239318
 20
117.7048001198
 30
0.0
  0
VERTEX
  5
499
  8
0
  6
CONTINUOUS
 62
     7
 10
80.0660033987
 20
117.8663088476
 30
0.0
  0
VERTEX
  5
49A
  8
0
  6
CONTINUOUS
 62
     7
 10
80.0630299085
 20
118.0368857338
 30
0.0
  0
VERTEX
  5
49B
  8
0
  6
CONTINUOUS
 62
     7
 10
80.0630984791
 20
118.2013634269
 30
0.0
  0
VERTEX
  5
49C
  8
0
  6
CONTINUOUS
 62
     7
 10
80.0661893208
 20
118.3652644341
 30
0.0
  0
VERTEX
  5
49D
  8
0
  6
CONTINUOUS
 62
     7
 10
80.0719836272
 20
118.5146574501
 30
0.0
  0
VERTEX
  5
49E
  8
0
  6
CONTINUOUS
 62
     7
 10
80.0805546553
 20
118.6540522884
 30
0.0
  0
VERTEX
  5
49F
  8
0
  6
CONTINUOUS
 62
     7
 10
80.0911082896
 20
118.7721864682
 30
0.0
  0
VERTEX
  5
4A0
  8
0
  6
CONTINUOUS
 62
     7
 10
80.1038001599
 20
118.8720435507
 30
0.0
  0
VERTEX
  5
4A1
  8
0
  6
CONTINUOUS
 62
     7
 10
80.117541041
 20
118.9456825895
 30
0.0
  0
VERTEX
  5
4A2
  8
0
  6
CONTINUOUS
 62
     7
 10
80.1325784891
 20
118.9946857774
 30
0.0
  0
VERTEX
  5
4A3
  8
0
  6
CONTINUOUS
 62
     7
 10
80.1476729021
 20
119.0150278318
 30
0.0
  0
VERTEX
  5
4A4
  8
0
  6
CONTINUOUS
 62
     7
 10
80.1631804124
 20
119.0070379561
 30
0.0
  0
VERTEX
  5
4A5
  8
0
  6
CONTINUOUS
 62
     7
 10
80.1778394388
 20
118.9713058067
 30
0.0
  0
VERTEX
  5
4A6
  8
0
  6
CONTINUOUS
 62
     7
 10
80.1920931466
 20
118.9067626441
 30
0.0
  0
VERTEX
  5
4A7
  8
0
  6
CONTINUOUS
 62
     7
 10
80.2047874879
 20
118.8189331898
 30
0.0
  0
VERTEX
  5
4A8
  8
0
  6
CONTINUOUS
 62
     7
 10
80.216382285
 20
118.7051724263
 30
0.0
  0
VERTEX
  5
4A9
  8
0
  6
CONTINUOUS
 62
     7
 10
80.2259474473
 20
118.5754650056
 30
0.0
  0
VERTEX
  5
4AA
  8
0
  6
CONTINUOUS
 62
     7
 10
80.2338706607
 20
118.4257178895
 30
0.0
  0
VERTEX
  5
4AB
  8
0
  6
CONTINUOUS
 62
     7
 10
80.2395284905
 20
118.2691119741
 30
0.0
  0
VERTEX
  5
4AC
  8
0
  6
CONTINUOUS
 62
     7
 10
80.2431646092
 20
118.1006195428
 30
0.0
  0
VERTEX
  5
4AD
  8
0
  6
CONTINUOUS
 62
     7
 10
80.2445023218
 20
117.9348851876
 30
0.0
  0
VERTEX
  5
4AE
  8
0
  6
CONTINUOUS
 62
     7
 10
80.2436051605
 20
117.7666856982
 30
0.0
  0
VERTEX
  5
4AF
  8
0
  6
CONTINUOUS
 62
     7
 10
80.2405451175
 20
117.6103253645
 30
0.0
  0
VERTEX
  5
4B0
  8
0
  6
CONTINUOUS
 62
     7
 10
80.2352068678
 20
117.4611127923
 30
0.0
  0
VERTEX
  5
4B1
  8
0
  6
CONTINUOUS
 62
     7
 10
80.2258282362
 20
117.301060742
 30
0.0
  0
SEQEND
  5
5EA
  8
0
  6
CONTINUOUS
 62
     7
  0
ARC
  5
CD
  8
0
  6
CONTINUOUS
 62
     7
 10
126.2186083738
 20
66.5373864073
 30
0.0
 40
60.0939914383164
 50
80.6623400139
 51
107.1940360492
  0
ARC
  5
CE
  8
0
  6
CONTINUOUS
 62
     7
 10
137.9634487246
 20
136.9064934561
 30
0.0
 40
11.24961310352631
 50
259.7880510998
 51
284.0888264924
  0
LINE
  5
CF
  8
0
  6
CONTINUOUS
 62
     7
 10
207.5140049508
 20
124.7725758567
 30
0.0
 11
207.5140049508
 21
127.5931021953
 31
0.0
  0
LINE
  5
D0
  8
0
  6
CONTINUOUS
 62
     7
 10
207.5140049508
 20
109.7931021953
 30
0.0
 11
207.5140049508
 21
112.6136285339
 31
0.0
  0
LINE
  5
D1
  8
0
  6
CONTINUOUS
 62
     7
 10
84.5150763865
 20
110.8982320873
 30
0.0
 11
84.4447475891
 21
110.8982320873
 31
0.0
  0
ARC
  5
D2
  8
0
  6
CONTINUOUS
 62
     7
 10
85.2546895811
 20
110.8905802174
 30
0.0
 40
0.2002714543145933
 50
223.4936531297
 51
258.2454882866
  0
LINE
  5
D3
  8
0
  6
CONTINUOUS
 62
     7
 10
85.2138905118
 20
110.6945085689
 30
0.0
 11
88.2640049508
 21
110.6945085689
 31
0.0
  0
ARC
  5
D4
  8
0
  6
CONTINUOUS
 62
     7
 10
87.7084588289
 20
208.0343335229
 30
0.0
 40
97.34141027109685
 50
270.326999792
 51
280.4052366792
  0
LINE
  5
D5
  8
0
  6
CONTINUOUS
 62
     7
 10
80.2435867355
 20
126.4026930613
 30
0.0
 11
80.3065312062
 21
126.6266393039
 31
0.0
  0
LINE
  5
D6
  8
0
  6
CONTINUOUS
 62
     7
 10
88.2640049508
 20
115.8931021953
 30
0.0
 11
88.2640049508
 21
110.6945085689
 31
0.0
  0
LINE
  5
D7
  8
0
  6
CONTINUOUS
 62
     7
 10
88.2640049508
 20
116.7267403843
 30
0.0
 11
88.2640049508
 21
115.8931021953
 31
0.0
  0
LINE
  5
D8
  8
0
  6
CONTINUOUS
 62
     7
 10
79.7916426761
 20
115.8931021953
 30
0.0
 11
79.7640049508
 21
116.1952358614
 31
0.0
  0
LINE
  5
D9
  8
0
  6
CONTINUOUS
 62
     7
 10
88.2640049508
 20
115.8931021953
 30
0.0
 11
85.7352450033
 21
115.8931021953
 31
0.0
  0
ARC
  5
DA
  8
0
  6
CONTINUOUS
 62
     7
 10
84.8659084925
 20
115.3988815653
 30
0.0
 40
1.00000000000003
 50
29.6183709205
 51
150.3816290795
  0
LINE
  5
DB
  8
0
  6
CONTINUOUS
 62
     7
 10
79.7640049508
 20
116.1952358614
 30
0.0
 11
79.7640049508
 21
116.8931021953
 31
0.0
  0
LINE
  5
DC
  8
0
  6
CONTINUOUS
 62
     7
 10
85.2082074538
 20
110.802947777
 30
0.0
 11
85.2138905118
 21
110.6945085689
 31
0.0
  0
ARC
  5
DD
  8
0
  6
CONTINUOUS
 62
     7
 10
84.8659084925
 20
115.3988815653
 30
0.0
 40
1.00000000000001
 50
281.0937340036
 51
29.6183709205
  0
LINE
  5
DE
  8
0
  6
CONTINUOUS
 62
     7
 10
79.7916426761
 20
115.8931021953
 30
0.0
 11
79.8149208923
 21
115.6367054298
 31
0.0
  0
ARC
  5
DF
  8
0
  6
CONTINUOUS
 62
     7
 10
82.1259297716
 20
120.5347451726
 30
0.0
 40
0.800542577611099
 50
192.2465056317
 51
345.9016420053
  0
LINE
  5
E0
  8
0
  6
CONTINUOUS
 62
     7
 10
81.5825084487
 20
112.7314236378
 30
0.0
 11
81.8905280557
 21
112.7011336304
 31
0.0
  0
LINE
  5
E1
  8
0
  6
CONTINUOUS
 62
     7
 10
81.8905280557
 20
112.7011336304
 30
0.0
 11
81.8807414697
 21
112.6016136689
 31
0.0
  0
LINE
  5
E2
  8
0
  6
CONTINUOUS
 62
     7
 10
81.8807414697
 20
112.6016136689
 30
0.0
 11
81.5727218627
 21
112.6319036763
 31
0.0
  0
LINE
  5
E3
  8
0
  6
CONTINUOUS
 62
     7
 10
81.5825084487
 20
112.7314236378
 30
0.0
 11
81.5727218627
 21
112.6319036763
 31
0.0
  0
ARC
  5
E4
  8
0
  6
CONTINUOUS
 62
     7
 10
81.5898483882
 20
112.8060636089
 30
0.0
 40
0.0750000000000091
 50
130.9861878664
 51
264.3837096094
  0
ARC
  5
E5
  8
0
  6
CONTINUOUS
 62
     7
 10
81.5898483882
 20
112.8060636089
 30
0.0
 40
0.1749999999999793
 50
130.9861878663
 51
264.3837096094
  0
LINE
  5
E6
  8
0
  6
CONTINUOUS
 62
     7
 10
81.5406576076
 20
112.8626786874
 30
0.0
 11
81.4750699002
 21
112.9381654586
 31
0.0
  0
LINE
  5
E7
  8
0
  6
CONTINUOUS
 62
     7
 10
82.9288954355
 20
112.3358368017
 30
0.0
 11
82.6362766757
 21
112.4366724316
 31
0.0
  0
LINE
  5
E8
  8
0
  6
CONTINUOUS
 62
     7
 10
82.6362766757
 20
112.4366724316
 30
0.0
 11
82.6688562836
 21
112.5312164381
 31
0.0
  0
LINE
  5
E9
  8
0
  6
CONTINUOUS
 62
     7
 10
82.6688562836
 20
112.5312164381
 30
0.0
 11
82.9614750433
 21
112.4303808082
 31
0.0
  0
LINE
  5
EA
  8
0
  6
CONTINUOUS
 62
     7
 10
82.9288954355
 20
112.3358368017
 30
0.0
 11
82.9614750433
 21
112.4303808082
 31
0.0
  0
ARC
  5
EB
  8
0
  6
CONTINUOUS
 62
     7
 10
82.9859097492
 20
112.501288813
 30
0.0
 40
0.1750000000000215
 50
250.9861878664
 51
24.3837096094
  0
ARC
  5
EC
  8
0
  6
CONTINUOUS
 62
     7
 10
82.9859097492
 20
112.501288813
 30
0.0
 40
0.0750000000000109
 50
250.9861878664
 51
24.3837096094
  0
LINE
  5
ED
  8
0
  6
CONTINUOUS
 62
     7
 10
83.1452999379
 20
112.5735367731
 30
0.0
 11
83.0542198301
 21
112.5322522245
 31
0.0
  0
ARC
  5
EE
  8
0
  6
CONTINUOUS
 62
     7
 10
81.7658101987
 20
113.6120800115
 30
0.0
 40
0.0750000000000239
 50
70.9861878664
 51
204.3837096094
  0
LINE
  5
EF
  8
0
  6
CONTINUOUS
 62
     7
 10
81.6975001178
 20
113.5811166
 30
0.0
 11
81.60642001
 21
113.5398320514
 31
0.0
  0
ARC
  5
F0
  8
0
  6
CONTINUOUS
 62
     7
 10
81.7658101987
 20
113.6120800115
 30
0.0
 40
0.175000000000048
 50
70.9861878664
 51
204.3837096094
  0
LINE
  5
F1
  8
0
  6
CONTINUOUS
 62
     7
 10
81.7902449046
 20
113.6829880163
 30
0.0
 11
81.8228245124
 21
113.7775320228
 31
0.0
  0
LINE
  5
F2
  8
0
  6
CONTINUOUS
 62
     7
 10
82.0828636643
 20
113.5821523864
 30
0.0
 11
81.7902449046
 21
113.6829880163
 31
0.0
  0
LINE
  5
F3
  8
0
  6
CONTINUOUS
 62
     7
 10
81.8228245124
 20
113.7775320228
 30
0.0
 11
82.1154432722
 21
113.6766963929
 31
0.0
  0
LINE
  5
F4
  8
0
  6
CONTINUOUS
 62
     7
 10
82.0828636643
 20
113.5821523864
 30
0.0
 11
82.1154432722
 21
113.6766963929
 31
0.0
  0
LINE
  5
F5
  8
0
  6
CONTINUOUS
 62
     7
 10
82.4908516431
 20
113.9063773745
 30
0.0
 11
82.3106099237
 21
113.6547695737
 31
0.0
  0
LINE
  5
F6
  8
0
  6
CONTINUOUS
 62
     7
 10
82.3106099237
 20
113.6547695737
 30
0.0
 11
82.2293164019
 21
113.7130049865
 31
0.0
  0
LINE
  5
F7
  8
0
  6
CONTINUOUS
 62
     7
 10
82.2293164019
 20
113.7130049865
 30
0.0
 11
82.4095581212
 21
113.9646127873
 31
0.0
  0
LINE
  5
F8
  8
0
  6
CONTINUOUS
 62
     7
 10
82.4908516431
 20
113.9063773745
 30
0.0
 11
82.4095581212
 21
113.9646127873
 31
0.0
  0
ARC
  5
F9
  8
0
  6
CONTINUOUS
 62
     7
 10
82.14802288
 20
113.7712403993
 30
0.0
 40
0.2000000000000022
 50
250.9861878664
 51
324.3837096094
  0
ARC
  5
FA
  8
0
  6
CONTINUOUS
 62
     7
 10
82.14802288
 20
113.7712403993
 30
0.0
 40
0.1000000000000361
 50
250.9861878664
 51
324.3837096094
  0
ARC
  5
FB
  8
0
  6
CONTINUOUS
 62
     7
 10
82.1998981635
 20
112.2506680097
 30
0.0
 40
0.1749999999999971
 50
190.9861878664
 51
324.3837096094
  0
LINE
  5
FC
  8
0
  6
CONTINUOUS
 62
     7
 10
82.0281053617
 20
112.2173178481
 30
0.0
 11
82.126272677
 21
112.2363750833
 31
0.0
  0
ARC
  5
FD
  8
0
  6
CONTINUOUS
 62
     7
 10
82.1998981635
 20
112.2506680097
 30
0.0
 40
0.0750000000000268
 50
190.9861878664
 51
324.3837096094
  0
LINE
  5
FE
  8
0
  6
CONTINUOUS
 62
     7
 10
82.3421618267
 20
112.1487560372
 30
0.0
 11
82.2608683049
 21
112.20699145
 31
0.0
  0
ARC
  5
FF
  8
0
  6
CONTINUOUS
 62
     7
 10
82.5518217844
 20
113.8627008148
 30
0.0
 40
0.0749999999999989
 50
10.9861878664
 51
144.3837096094
  0
ARC
  5
100
  8
0
  6
CONTINUOUS
 62
     7
 10
82.5518217844
 20
113.8627008148
 30
0.0
 40
0.1750000000000117
 50
10.9861878664
 51
144.3837096094
  0
LINE
  5
101
  8
0
  6
CONTINUOUS
 62
     7
 10
82.6254472709
 20
113.8769937412
 30
0.0
 11
82.7236145862
 21
113.8960509764
 31
0.0
  0
LINE
  5
102
  8
0
  6
CONTINUOUS
 62
     7
 10
82.522403546
 20
112.400363838
 30
0.0
 11
82.3421618267
 21
112.1487560372
 31
0.0
  0
LINE
  5
103
  8
0
  6
CONTINUOUS
 62
     7
 10
82.2608683049
 20
112.20699145
 30
0.0
 11
82.4411100242
 21
112.4585992508
 31
0.0
  0
LINE
  5
104
  8
0
  6
CONTINUOUS
 62
     7
 10
82.522403546
 20
112.400363838
 30
0.0
 11
82.4411100242
 21
112.4585992508
 31
0.0
  0
LINE
  5
105
  8
0
  6
CONTINUOUS
 62
     7
 10
83.2766500477
 20
113.1752033659
 30
0.0
 11
83.0430144507
 21
112.9722059013
 31
0.0
  0
LINE
  5
106
  8
0
  6
CONTINUOUS
 62
     7
 10
83.0430144507
 20
112.9722059013
 30
0.0
 11
82.9774267433
 21
113.0476926725
 31
0.0
  0
LINE
  5
107
  8
0
  6
CONTINUOUS
 62
     7
 10
82.9774267433
 20
113.0476926725
 30
0.0
 11
83.2110623403
 21
113.2506901371
 31
0.0
  0
LINE
  5
108
  8
0
  6
CONTINUOUS
 62
     7
 10
83.2766500477
 20
113.1752033659
 30
0.0
 11
83.2110623403
 21
113.2506901371
 31
0.0
  0
LINE
  5
109
  8
0
  6
CONTINUOUS
 62
     7
 10
81.7742932046
 20
113.065676152
 30
0.0
 11
81.5406576076
 21
112.8626786874
 31
0.0
  0
LINE
  5
10A
  8
0
  6
CONTINUOUS
 62
     7
 10
81.4750699002
 20
112.9381654586
 30
0.0
 11
81.7087054972
 21
113.1411629232
 31
0.0
  0
LINE
  5
10B
  8
0
  6
CONTINUOUS
 62
     7
 10
81.7742932046
 20
113.065676152
 30
0.0
 11
81.7087054972
 21
113.1411629232
 31
0.0
  0
ARC
  5
10C
  8
0
  6
CONTINUOUS
 62
     7
 10
83.1618715597
 20
113.3073052156
 30
0.0
 40
0.1749999999999901
 50
310.9861878664
 51
84.3837096094
  0
ARC
  5
10D
  8
0
  6
CONTINUOUS
 62
     7
 10
83.1618715597
 20
113.3073052156
 30
0.0
 40
0.0749999999999983
 50
310.9861878664
 51
84.3837096095
  0
LINE
  5
10E
  8
0
  6
CONTINUOUS
 62
     7
 10
83.1789980852
 20
113.4814651482
 30
0.0
 11
83.1692114992
 21
113.3819451867
 31
0.0
  0
ARC
  5
10F
  8
0
  6
CONTINUOUS
 62
     7
 10
82.6036970679
 20
112.3421284252
 30
0.0
 40
0.099999999999999
 50
70.9861878664
 51
144.3837096094
  0
LINE
  5
110
  8
0
  6
CONTINUOUS
 62
     7
 10
83.0175220503
 20
112.8554345813
 30
0.0
 11
83.1452999379
 21
112.5735367731
 31
0.0
  0
ARC
  5
111
  8
0
  6
CONTINUOUS
 62
     7
 10
83.1086021581
 20
112.89671913
 30
0.0
 40
0.0999999999999997
 50
130.9861878664
 51
204.3837096094
  0
LINE
  5
112
  8
0
  6
CONTINUOUS
 62
     7
 10
82.8709784782
 20
113.5117551556
 30
0.0
 11
83.1789980852
 21
113.4814651482
 31
0.0
  0
ARC
  5
113
  8
0
  6
CONTINUOUS
 62
     7
 10
82.8807650642
 20
113.611275117
 30
0.0
 40
0.1000000000000628
 50
190.9861878664
 51
264.3837096094
  0
LINE
  5
114
  8
0
  6
CONTINUOUS
 62
     7
 10
82.7236145862
 20
113.8960509764
 30
0.0
 11
82.7825977489
 21
113.5922178819
 31
0.0
  0
LINE
  5
115
  8
0
  6
CONTINUOUS
 62
     7
 10
81.7341978976
 20
113.2579342432
 30
0.0
 11
81.60642001
 21
113.5398320514
 31
0.0
  0
ARC
  5
116
  8
0
  6
CONTINUOUS
 62
     7
 10
81.6431177898
 20
113.2166496945
 30
0.0
 40
0.0999999999999976
 50
310.9861878664
 51
24.3837096094
  0
ARC
  5
117
  8
0
  6
CONTINUOUS
 62
     7
 10
81.8709548837
 20
112.5020937075
 30
0.0
 40
0.0999999999999931
 50
10.9861878664
 51
84.3837096095
  0
LINE
  5
118
  8
0
  6
CONTINUOUS
 62
     7
 10
82.0281053617
 20
112.2173178481
 30
0.0
 11
81.969122199
 21
112.5211509426
 31
0.0
  0
CIRCLE
  5
119
  8
0
  6
CONTINUOUS
 62
     7
 10
82.375859974
 20
113.0566844122
 30
0.0
 40
1.125000000000038
  0
LINE
  5
11A
  8
0
  6
CONTINUOUS
 62
     7
 10
81.969122199
 20
112.5211509426
 30
0.0
 11
82.0672895143
 21
112.5402081778
 31
0.0
  0
LINE
  5
11B
  8
0
  6
CONTINUOUS
 62
     7
 10
82.0672895143
 20
112.5402081778
 30
0.0
 11
82.126272677
 21
112.2363750833
 31
0.0
  0
LINE
  5
11C
  8
0
  6
CONTINUOUS
 62
     7
 10
83.0542198301
 20
112.5322522245
 30
0.0
 11
82.9264419425
 21
112.8141500327
 31
0.0
  0
LINE
  5
11D
  8
0
  6
CONTINUOUS
 62
     7
 10
83.0175220503
 20
112.8554345813
 30
0.0
 11
82.9264419425
 21
112.8141500327
 31
0.0
  0
ARC
  5
11E
  8
0
  6
CONTINUOUS
 62
     7
 10
81.6431177898
 20
113.2166496945
 30
0.0
 40
0.1999999999999951
 50
310.9861878664
 51
24.3837096094
  0
LINE
  5
11F
  8
0
  6
CONTINUOUS
 62
     7
 10
81.8252780054
 20
113.2992187918
 30
0.0
 11
81.7341978976
 21
113.2579342432
 31
0.0
  0
ARC
  5
120
  8
0
  6
CONTINUOUS
 62
     7
 10
81.8709548837
 20
112.5020937075
 30
0.0
 40
0.2000000000000446
 50
10.9861878664
 51
84.3837096094
  0
LINE
  5
121
  8
0
  6
CONTINUOUS
 62
     7
 10
81.6975001178
 20
113.5811166
 30
0.0
 11
81.8252780054
 21
113.2992187918
 31
0.0
  0
LINE
  5
122
  8
0
  6
CONTINUOUS
 62
     7
 10
83.1692114992
 20
113.3819451867
 30
0.0
 11
82.8611918922
 21
113.4122351941
 31
0.0
  0
LINE
  5
123
  8
0
  6
CONTINUOUS
 62
     7
 10
82.8709784782
 20
113.5117551556
 30
0.0
 11
82.8611918922
 21
113.4122351941
 31
0.0
  0
ARC
  5
124
  8
0
  6
CONTINUOUS
 62
     7
 10
83.1086021581
 20
112.89671913
 30
0.0
 40
0.2000000000000058
 50
130.9861878664
 51
204.3837096094
  0
LINE
  5
125
  8
0
  6
CONTINUOUS
 62
     7
 10
82.6844304337
 20
113.5731606467
 30
0.0
 11
82.6254472709
 21
113.8769937412
 31
0.0
  0
LINE
  5
126
  8
0
  6
CONTINUOUS
 62
     7
 10
82.6844304337
 20
113.5731606467
 30
0.0
 11
82.7825977489
 21
113.5922178819
 31
0.0
  0
CIRCLE
  5
127
  8
0
  6
CONTINUOUS
 62
     7
 10
82.375859974
 20
113.0566844122
 30
0.0
 40
1.225000000000042
  0
ARC
  5
128
  8
0
  6
CONTINUOUS
 62
     7
 10
82.8807650642
 20
113.611275117
 30
0.0
 40
0.2000000000000167
 50
190.9861878664
 51
264.3837096094
  0
ARC
  5
129
  8
0
  6
CONTINUOUS
 62
     7
 10
82.6036970679
 20
112.3421284252
 30
0.0
 40
0.2000000000000275
 50
70.9861878664
 51
144.3837096094
  0
LINE
  5
12A
  8
0
  6
CONTINUOUS
 62
     7
 10
82.9859097492
 20
112.501288813
 30
0.0
 11
83.0542198301
 21
112.5322522245
 31
0.0
  0
LINE
  5
12B
  8
0
  6
CONTINUOUS
 62
     7
 10
82.7367202578
 20
112.7281534928
 30
0.0
 11
82.9859097492
 21
112.501288813
 31
0.0
  0
LINE
  5
12C
  8
0
  6
CONTINUOUS
 62
     7
 10
82.7367202578
 20
112.7281534928
 30
0.0
 11
82.9264419425
 21
112.8141500327
 31
0.0
  0
LINE
  5
12D
  8
0
  6
CONTINUOUS
 62
     7
 10
82.375859974
 20
113.0566844122
 30
0.0
 11
82.8408062381
 21
113.2049331255
 31
0.0
  0
LINE
  5
12E
  8
0
  6
CONTINUOUS
 62
     7
 10
82.8408062381
 20
113.2049331255
 30
0.0
 11
82.9774267433
 21
113.0476926725
 31
0.0
  0
LINE
  5
12F
  8
0
  6
CONTINUOUS
 62
     7
 10
82.375859974
 20
113.0566844122
 30
0.0
 11
82.7367202578
 21
112.7281534928
 31
0.0
  0
LINE
  5
130
  8
0
  6
CONTINUOUS
 62
     7
 10
81.5898483882
 20
112.8060636089
 30
0.0
 11
81.5825084487
 21
112.7314236378
 31
0.0
  0
LINE
  5
131
  8
0
  6
CONTINUOUS
 62
     7
 10
81.9109137098
 20
112.908435699
 30
0.0
 11
81.5898483882
 21
112.8060636089
 31
0.0
  0
LINE
  5
132
  8
0
  6
CONTINUOUS
 62
     7
 10
81.9109137098
 20
112.908435699
 30
0.0
 11
81.8905280557
 21
112.7011336304
 31
0.0
  0
LINE
  5
133
  8
0
  6
CONTINUOUS
 62
     7
 10
81.5898483882
 20
112.8060636089
 30
0.0
 11
81.5406576076
 21
112.8626786874
 31
0.0
  0
LINE
  5
134
  8
0
  6
CONTINUOUS
 62
     7
 10
82.4799459542
 20
113.533464045
 30
0.0
 11
82.6844304337
 21
113.5731606467
 31
0.0
  0
LINE
  5
135
  8
0
  6
CONTINUOUS
 62
     7
 10
82.8408062381
 20
113.2049331255
 30
0.0
 11
82.8611918922
 21
113.4122351941
 31
0.0
  0
LINE
  5
136
  8
0
  6
CONTINUOUS
 62
     7
 10
82.4799459542
 20
113.533464045
 30
0.0
 11
82.375859974
 21
113.0566844122
 31
0.0
  0
LINE
  5
137
  8
0
  6
CONTINUOUS
 62
     7
 10
82.0149996901
 20
113.3852153317
 30
0.0
 11
82.0828636643
 21
113.5821523864
 31
0.0
  0
LINE
  5
138
  8
0
  6
CONTINUOUS
 62
     7
 10
82.0149996901
 20
113.3852153317
 30
0.0
 11
81.7658101987
 21
113.6120800115
 31
0.0
  0
LINE
  5
139
  8
0
  6
CONTINUOUS
 62
     7
 10
81.7658101987
 20
113.6120800115
 30
0.0
 11
81.7902449046
 21
113.6829880163
 31
0.0
  0
LINE
  5
13A
  8
0
  6
CONTINUOUS
 62
     7
 10
82.4799459542
 20
113.533464045
 30
0.0
 11
82.5518217844
 21
113.8627008148
 31
0.0
  0
LINE
  5
13B
  8
0
  6
CONTINUOUS
 62
     7
 10
82.5518217844
 20
113.8627008148
 30
0.0
 11
82.6254472709
 21
113.8769937412
 31
0.0
  0
LINE
  5
13C
  8
0
  6
CONTINUOUS
 62
     7
 10
81.7658101987
 20
113.6120800115
 30
0.0
 11
81.6975001178
 21
113.5811166
 31
0.0
  0
LINE
  5
13D
  8
0
  6
CONTINUOUS
 62
     7
 10
82.375859974
 20
113.0566844122
 30
0.0
 11
82.2717739937
 21
112.5799047795
 31
0.0
  0
LINE
  5
13E
  8
0
  6
CONTINUOUS
 62
     7
 10
82.2717739937
 20
112.5799047795
 30
0.0
 11
82.0672895143
 21
112.5402081778
 31
0.0
  0
LINE
  5
13F
  8
0
  6
CONTINUOUS
 62
     7
 10
82.375859974
 20
113.0566844122
 30
0.0
 11
81.9109137098
 21
112.908435699
 31
0.0
  0
LINE
  5
140
  8
0
  6
CONTINUOUS
 62
     7
 10
82.9859097492
 20
112.501288813
 30
0.0
 11
82.9614750433
 21
112.4303808082
 31
0.0
  0
LINE
  5
141
  8
0
  6
CONTINUOUS
 62
     7
 10
82.1998981635
 20
112.2506680097
 30
0.0
 11
82.2608683049
 21
112.20699145
 31
0.0
  0
LINE
  5
142
  8
0
  6
CONTINUOUS
 62
     7
 10
82.1998981635
 20
112.2506680097
 30
0.0
 11
82.126272677
 21
112.2363750833
 31
0.0
  0
LINE
  5
143
  8
0
  6
CONTINUOUS
 62
     7
 10
82.2717739937
 20
112.5799047795
 30
0.0
 11
82.1998981635
 21
112.2506680097
 31
0.0
  0
LINE
  5
144
  8
0
  6
CONTINUOUS
 62
     7
 10
82.2717739937
 20
112.5799047795
 30
0.0
 11
82.4411100242
 21
112.4585992508
 31
0.0
  0
LINE
  5
145
  8
0
  6
CONTINUOUS
 62
     7
 10
83.1618715597
 20
113.3073052156
 30
0.0
 11
83.1692114992
 21
113.3819451867
 31
0.0
  0
LINE
  5
146
  8
0
  6
CONTINUOUS
 62
     7
 10
82.8408062381
 20
113.2049331255
 30
0.0
 11
83.1618715597
 21
113.3073052156
 31
0.0
  0
LINE
  5
147
  8
0
  6
CONTINUOUS
 62
     7
 10
83.1618715597
 20
113.3073052156
 30
0.0
 11
83.2110623403
 21
113.2506901371
 31
0.0
  0
LINE
  5
148
  8
0
  6
CONTINUOUS
 62
     7
 10
82.7367202578
 20
112.7281534928
 30
0.0
 11
82.6688562836
 21
112.5312164381
 31
0.0
  0
LINE
  5
149
  8
0
  6
CONTINUOUS
 62
     7
 10
81.9109137098
 20
112.908435699
 30
0.0
 11
81.7742932046
 21
113.065676152
 31
0.0
  0
LINE
  5
14A
  8
0
  6
CONTINUOUS
 62
     7
 10
82.0149996901
 20
113.3852153317
 30
0.0
 11
81.8252780054
 21
113.2992187918
 31
0.0
  0
LINE
  5
14B
  8
0
  6
CONTINUOUS
 62
     7
 10
82.375859974
 20
113.0566844122
 30
0.0
 11
82.0149996901
 21
113.3852153317
 31
0.0
  0
LINE
  5
14C
  8
0
  6
CONTINUOUS
 62
     7
 10
82.4799459542
 20
113.533464045
 30
0.0
 11
82.3106099237
 21
113.6547695737
 31
0.0
  0
LINE
  5
14D
  8
0
  6
CONTINUOUS
 62
     7
 10
82.5518217844
 20
113.8627008148
 30
0.0
 11
82.4908516431
 21
113.9063773745
 31
0.0
  0
LINE
  5
14E
  8
0
  6
CONTINUOUS
 62
     7
 10
80.6533137112
 20
112.2202504448
 30
0.0
 11
80.6282646165
 21
112.2428047511
 31
0.0
  0
LINE
  5
14F
  8
0
  6
CONTINUOUS
 62
     7
 10
80.7497982547
 20
112.3777815307
 30
0.0
 11
80.6282646165
 21
112.2428047511
 31
0.0
  0
ARC
  5
150
  8
0
  6
CONTINUOUS
 62
     7
 10
80.7803633363
 20
112.3883710255
 30
0.0
 40
0.0323475132194965
 50
199.1090153396
 51
261.9783272971
  0
LINE
  5
151
  8
0
  6
CONTINUOUS
 62
     7
 10
80.6533137112
 20
112.2202504448
 30
0.0
 11
80.7758493162
 21
112.3563400212
 31
0.0
  0
ARC
  5
152
  8
0
  6
CONTINUOUS
 62
     7
 10
82.375859974
 20
113.0566844122
 30
0.0
 40
1.700000000000005
 50
159.3640440434
 51
206.6359559566
  0
ARC
  5
153
  8
0
  6
CONTINUOUS
 62
     7
 10
80.7636727299
 20
112.2572598893
 30
0.0
 40
0.099825556782329
 50
21.9288269965
 51
82.993690311
  0
ARC
  5
154
  8
0
  6
CONTINUOUS
 62
     7
 10
82.375859974
 20
113.0566844122
 30
0.0
 40
1.76209700000001
 50
163.338800161
 51
202.661199839
  0
ARC
  5
155
  8
0
  6
CONTINUOUS
 62
     7
 10
80.7182612396
 20
113.5555309593
 30
0.0
 40
0.0311770877880936
 50
102.6974681873
 51
168.2151890537
  0
ARC
  5
156
  8
0
  6
CONTINUOUS
 62
     7
 10
80.6890627861
 20
113.6830828744
 30
0.0
 40
0.0996743682226136
 50
282.9550374197
 51
344.1224453064
  0
ARC
  5
157
  8
0
  6
CONTINUOUS
 62
     7
 10
82.375859974
 20
113.0566844122
 30
0.0
 40
1.700000000000004
 50
249.3640440434
 51
296.6359559566
  0
ARC
  5
158
  8
0
  6
CONTINUOUS
 62
     7
 10
83.1752844969
 20
111.4444971682
 30
0.0
 40
0.0998255567823105
 50
111.9288269965
 51
172.993690311
  0
ARC
  5
159
  8
0
  6
CONTINUOUS
 62
     7
 10
83.0441733607
 20
111.4611877746
 30
0.0
 40
0.0323475132227652
 50
289.1090153424
 51
351.9783272936
  0
ARC
  5
15A
  8
0
  6
CONTINUOUS
 62
     7
 10
82.375859974
 20
113.0566844122
 30
0.0
 40
1.76209700000001
 50
253.338800161
 51
292.661199839
  0
ARC
  5
15B
  8
0
  6
CONTINUOUS
 62
     7
 10
81.8770134269
 20
111.3990856779
 30
0.0
 40
0.0311770877871337
 50
192.6974681871
 51
258.215189057
  0
ARC
  5
15C
  8
0
  6
CONTINUOUS
 62
     7
 10
81.7494615118
 20
111.3698872244
 30
0.0
 40
0.0996743682249692
 50
12.9550374201
 51
74.1224453055
  0
LINE
  5
15D
  8
0
  6
CONTINUOUS
 62
     7
 10
83.1897396351
 20
111.3090890547
 30
0.0
 11
83.2122939414
 21
111.3341381495
 31
0.0
  0
LINE
  5
15E
  8
0
  6
CONTINUOUS
 62
     7
 10
83.0547628555
 20
111.430622693
 30
0.0
 11
83.1897396351
 21
111.3090890547
 31
0.0
  0
LINE
  5
15F
  8
0
  6
CONTINUOUS
 62
     7
 10
83.2122939414
 20
111.3341381495
 30
0.0
 11
83.076204365
 21
111.4566737545
 31
0.0
  0
ARC
  5
160
  8
0
  6
CONTINUOUS
 62
     7
 10
82.375859974
 20
113.0566844122
 30
0.0
 40
1.700000000000007
 50
339.3640440434
 51
26.6359559566
  0
ARC
  5
161
  8
0
  6
CONTINUOUS
 62
     7
 10
83.988047218
 20
113.8561089352
 30
0.0
 40
0.0998255567799857
 50
201.9288269958
 51
262.9936903117
  0
ARC
  5
162
  8
0
  6
CONTINUOUS
 62
     7
 10
83.9713566116
 20
113.724997799
 30
0.0
 40
0.0323475132226568
 50
19.109015343
 51
81.9783272936
  0
ARC
  5
163
  8
0
  6
CONTINUOUS
 62
     7
 10
82.375859974
 20
113.0566844122
 30
0.0
 40
1.762097000000005
 50
343.338800161
 51
22.661199839
  0
ARC
  5
164
  8
0
  6
CONTINUOUS
 62
     7
 10
84.0334587083
 20
112.5578378652
 30
0.0
 40
0.0311770877872648
 50
282.6974681863
 51
348.2151890548
  0
ARC
  5
165
  8
0
  6
CONTINUOUS
 62
     7
 10
84.0626571618
 20
112.4302859501
 30
0.0
 40
0.0996743682255533
 50
102.9550374207
 51
164.1224453054
  0
LINE
  5
166
  8
0
  6
CONTINUOUS
 62
     7
 10
84.0984062367
 20
113.8931183797
 30
0.0
 11
84.1234553315
 21
113.8705640734
 31
0.0
  0
LINE
  5
167
  8
0
  6
CONTINUOUS
 62
     7
 10
84.0019216932
 20
113.7355872938
 30
0.0
 11
84.1234553315
 21
113.8705640734
 31
0.0
  0
LINE
  5
168
  8
0
  6
CONTINUOUS
 62
     7
 10
84.0984062367
 20
113.8931183797
 30
0.0
 11
83.9758706317
 21
113.7570288033
 31
0.0
  0
ARC
  5
169
  8
0
  6
CONTINUOUS
 62
     7
 10
82.375859974
 20
113.0566844122
 30
0.0
 40
1.700000000000016
 50
69.3640440434
 51
116.6359559566
  0
ARC
  5
16A
  8
0
  6
CONTINUOUS
 62
     7
 10
81.5764354815
 20
114.6688716329
 30
0.0
 40
0.0998255237085825
 50
291.9288158001
 51
352.9937015073
  0
ARC
  5
16B
  8
0
  6
CONTINUOUS
 62
     7
 10
81.707546605
 20
114.6521810352
 30
0.0
 40
0.0323475329662918
 50
109.1090367185
 51
171.9783059182
  0
ARC
  5
16C
  8
0
  6
CONTINUOUS
 62
     7
 10
82.375859974
 20
113.0566844122
 30
0.0
 40
1.762097000000011
 50
73.338800161
 51
112.661199839
  0
ARC
  5
16D
  8
0
  6
CONTINUOUS
 62
     7
 10
82.874706521
 20
114.7142831466
 30
0.0
 40
0.0311770877882582
 50
12.6974681875
 51
78.2151890537
  0
ARC
  5
16E
  8
0
  6
CONTINUOUS
 62
     7
 10
83.0022584361
 20
114.7434816001
 30
0.0
 40
0.0996743682235591
 50
192.95503742
 51
254.1224453063
  0
LINE
  5
16F
  8
0
  6
CONTINUOUS
 62
     7
 10
81.5394260065
 20
114.779230675
 30
0.0
 11
81.5619803128
 21
114.8042797697
 31
0.0
  0
LINE
  5
170
  8
0
  6
CONTINUOUS
 62
     7
 10
81.6969570924
 20
114.6827461315
 30
0.0
 11
81.5619803128
 21
114.8042797697
 31
0.0
  0
LINE
  5
171
  8
0
  6
CONTINUOUS
 62
     7
 10
81.5394260065
 20
114.779230675
 30
0.0
 11
81.6755155829
 21
114.65669507
 31
0.0
  0
ARC
  5
172
  8
0
  6
CONTINUOUS
 62
     7
 10
84.0090683045
 20
113.9745564576
 30
0.0
 40
0.1545923928048756
 50
317.7251652653
 51
48.2748347347
  0
LINE
  5
173
  8
0
  6
CONTINUOUS
 62
     7
 10
84.1119585432
 20
114.0899358608
 30
0.0
 11
83.2219794474
 21
114.891276638
 31
0.0
  0
ARC
  5
174
  8
0
  6
CONTINUOUS
 62
     7
 10
83.1179870632
 20
114.776889611
 30
0.0
 40
0.1545923928042988
 50
47.7251652652
 51
138.2748347348
  0
LINE
  5
175
  8
0
  6
CONTINUOUS
 62
     7
 10
83.0026076601
 20
114.8797798498
 30
0.0
 11
82.8810740218
 21
114.7448030702
 31
0.0
  0
ARC
  5
176
  8
0
  6
CONTINUOUS
 62
     7
 10
81.4579879286
 20
114.6898927428
 30
0.0
 40
0.1545923928048618
 50
47.7251652653
 51
138.2748347347
  0
LINE
  5
177
  8
0
  6
CONTINUOUS
 62
     7
 10
81.3426085254
 20
114.7927829815
 30
0.0
 11
80.5412677482
 21
113.9028038857
 31
0.0
  0
ARC
  5
178
  8
0
  6
CONTINUOUS
 62
     7
 10
80.6556547752
 20
113.7988115015
 30
0.0
 40
0.1545923928043284
 50
137.7251652652
 51
228.2748347348
  0
LINE
  5
179
  8
0
  6
CONTINUOUS
 62
     7
 10
80.5527645364
 20
113.6834320984
 30
0.0
 11
80.687741316
 21
113.5618984601
 31
0.0
  0
ARC
  5
17A
  8
0
  6
CONTINUOUS
 62
     7
 10
80.7426516434
 20
112.1388123669
 30
0.0
 40
0.1545923928049125
 50
137.7251652653
 51
228.2748347347
  0
LINE
  5
17B
  8
0
  6
CONTINUOUS
 62
     7
 10
80.6397614047
 20
112.0234329637
 30
0.0
 11
81.5297405005
 21
111.2220921865
 31
0.0
  0
ARC
  5
17C
  8
0
  6
CONTINUOUS
 62
     7
 10
81.6337328847
 20
111.3364792135
 30
0.0
 40
0.1545923928043124
 50
227.7251652652
 51
318.2748347348
  0
LINE
  5
17D
  8
0
  6
CONTINUOUS
 62
     7
 10
81.7491122878
 20
111.2335889747
 30
0.0
 11
81.8706459261
 21
111.3685657543
 31
0.0
  0
ARC
  5
17E
  8
0
  6
CONTINUOUS
 62
     7
 10
83.2937320193
 20
111.4234760817
 30
0.0
 40
0.1545923928048839
 50
227.7251652653
 51
318.2748347347
  0
LINE
  5
17F
  8
0
  6
CONTINUOUS
 62
     7
 10
83.4091114225
 20
111.320585843
 30
0.0
 11
84.2104521997
 21
112.2105649388
 31
0.0
  0
ARC
  5
180
  8
0
  6
CONTINUOUS
 62
     7
 10
84.0960651727
 20
112.314557323
 30
0.0
 40
0.1545923928042988
 50
317.7251652652
 51
48.2748347348
  0
LINE
  5
181
  8
0
  6
CONTINUOUS
 62
     7
 10
84.1989554115
 20
112.4299367261
 30
0.0
 11
84.0639786319
 21
112.5514703644
 31
0.0
  0
ARC
  5
182
  8
0
  6
CONTINUOUS
 62
     7
 10
84.2525610053
 20
111.3668995275
 30
0.0
 40
0.0492496605178013
 50
273.205793109
 51
2.5647360819
  0
LINE
  5
183
  8
0
  6
CONTINUOUS
 62
     7
 10
84.2553151672
 20
111.317726937
 30
0.0
 11
80.6884711854
 21
111.1307965649
 31
0.0
  0
ARC
  5
184
  8
0
  6
CONTINUOUS
 62
     7
 10
80.6860701378
 20
111.179987463
 30
0.0
 40
0.0492494617246613
 50
183.4350352191
 51
272.79443559
  0
LINE
  5
185
  8
0
  6
CONTINUOUS
 62
     7
 10
80.6369091589
 20
111.1770365945
 30
0.0
 11
80.4499586155
 21
114.7442654662
 31
0.0
  0
ARC
  5
186
  8
0
  6
CONTINUOUS
 62
     7
 10
80.4991589426
 20
114.746469297
 30
0.0
 40
0.0492496605178055
 50
93.205793109
 51
182.5647360819
  0
LINE
  5
187
  8
0
  6
CONTINUOUS
 62
     7
 10
80.4964047807
 20
114.7956418874
 30
0.0
 11
84.0632487625
 21
114.9825722596
 31
0.0
  0
ARC
  5
188
  8
0
  6
CONTINUOUS
 62
     7
 10
84.0656498101
 20
114.9333813615
 30
0.0
 40
0.0492494617246628
 50
3.4350352192
 51
92.79443559
  0
LINE
  5
189
  8
0
  6
CONTINUOUS
 62
     7
 10
84.1148107891
 20
114.93633223
 30
0.0
 11
84.3017613324
 21
111.3691033583
 31
0.0
  0
CIRCLE
  5
18A
  8
0
  6
CONTINUOUS
 62
     7
 10
80.7277505373
 20
114.5406488145
 30
0.0
 40
0.1995975000000936
  0
LINE
  5
18B
  8
0
  6
CONTINUOUS
 62
     7
 10
84.1854031049
 20
112.233119245
 30
0.0
 11
83.3840623277
 21
111.3431401492
 31
0.0
  0
LINE
  5
18C
  8
0
  6
CONTINUOUS
 62
     7
 10
84.1854031049
 20
112.233119245
 30
0.0
 11
84.2104521997
 21
112.2105649388
 31
0.0
  0
LINE
  5
18D
  8
0
  6
CONTINUOUS
 62
     7
 10
83.3840623277
 20
111.3431401492
 30
0.0
 11
83.4091114225
 21
111.320585843
 31
0.0
  0
LINE
  5
18E
  8
0
  6
CONTINUOUS
 62
     7
 10
80.566316843
 20
113.8802495795
 30
0.0
 11
81.3676576202
 21
114.7702286753
 31
0.0
  0
LINE
  5
18F
  8
0
  6
CONTINUOUS
 62
     7
 10
80.566316843
 20
113.8802495795
 30
0.0
 11
80.5412677482
 21
113.9028038857
 31
0.0
  0
LINE
  5
190
  8
0
  6
CONTINUOUS
 62
     7
 10
81.3676576202
 20
114.7702286753
 30
0.0
 11
81.3426085254
 21
114.7927829815
 31
0.0
  0
LINE
  5
191
  8
0
  6
CONTINUOUS
 62
     7
 10
83.1994251412
 20
114.8662275432
 30
0.0
 11
84.089404237
 21
114.064886766
 31
0.0
  0
LINE
  5
192
  8
0
  6
CONTINUOUS
 62
     7
 10
83.1994251412
 20
114.8662275432
 30
0.0
 11
83.2219794474
 21
114.891276638
 31
0.0
  0
LINE
  5
193
  8
0
  6
CONTINUOUS
 62
     7
 10
84.089404237
 20
114.064886766
 30
0.0
 11
84.1119585432
 21
114.0899358608
 31
0.0
  0
LINE
  5
194
  8
0
  6
CONTINUOUS
 62
     7
 10
84.1764011053
 20
112.4048876314
 30
0.0
 11
84.1989554115
 21
112.4299367261
 31
0.0
  0
LINE
  5
195
  8
0
  6
CONTINUOUS
 62
     7
 10
84.0403115287
 20
112.5274232362
 30
0.0
 11
84.1764011053
 21
112.4048876314
 31
0.0
  0
LINE
  5
196
  8
0
  6
CONTINUOUS
 62
     7
 10
80.5753188427
 20
113.7084811931
 30
0.0
 11
80.5527645364
 21
113.6834320984
 31
0.0
  0
LINE
  5
197
  8
0
  6
CONTINUOUS
 62
     7
 10
80.7114084192
 20
113.5859455883
 30
0.0
 11
80.5753188427
 21
113.7084811931
 31
0.0
  0
LINE
  5
198
  8
0
  6
CONTINUOUS
 62
     7
 10
83.0276567548
 20
114.8572255435
 30
0.0
 11
83.0026076601
 21
114.8797798498
 31
0.0
  0
LINE
  5
199
  8
0
  6
CONTINUOUS
 62
     7
 10
82.90512115
 20
114.721135967
 30
0.0
 11
83.0276567548
 21
114.8572255435
 31
0.0
  0
LINE
  5
19A
  8
0
  6
CONTINUOUS
 62
     7
 10
81.5522948067
 20
111.2471412813
 30
0.0
 11
80.6623157109
 21
112.0484820585
 31
0.0
  0
LINE
  5
19B
  8
0
  6
CONTINUOUS
 62
     7
 10
81.5522948067
 20
111.2471412813
 30
0.0
 11
81.5297405005
 21
111.2220921865
 31
0.0
  0
LINE
  5
19C
  8
0
  6
CONTINUOUS
 62
     7
 10
80.6623157109
 20
112.0484820585
 30
0.0
 11
80.6397614047
 21
112.0234329637
 31
0.0
  0
LINE
  5
19D
  8
0
  6
CONTINUOUS
 62
     7
 10
81.7240631931
 20
111.2561432809
 30
0.0
 11
81.7491122878
 21
111.2335889747
 31
0.0
  0
LINE
  5
19E
  8
0
  6
CONTINUOUS
 62
     7
 10
81.8465987979
 20
111.3922328575
 30
0.0
 11
81.7240631931
 21
111.2561432809
 31
0.0
  0
LINE
  5
19F
  8
0
  6
CONTINUOUS
 62
     7
 10
80.3990376757
 20
114.7412539966
 30
0.0
 11
80.585952385
 21
111.1747088793
 31
0.0
  0
POLYLINE
  5
1A0
  8
0
  6
CONTINUOUS
 62
     7
 66
     1
 10
0.0
 20
0.0
 30
0.0
 70
   128
  0
VERTEX
  5
4B2
  8
0
  6
CONTINUOUS
 62
     7
 10
80.3990376757
 20
114.7412539966
 30
0.0
  0
VERTEX
  5
4B3
  8
0
  6
CONTINUOUS
 62
     7
 10
80.4232547163
 20
114.742694566
 30
0.0
  0
VERTEX
  5
4B4
  8
0
  6
CONTINUOUS
 62
     7
 10
80.4499586155
 20
114.7442654662
 30
0.0
  0
SEQEND
  5
5EB
  8
0
  6
CONTINUOUS
 62
     7
  0
POLYLINE
  5
1A1
  8
0
  6
CONTINUOUS
 62
     7
 66
     1
 10
0.0
 20
0.0
 30
0.0
 70
   128
  0
VERTEX
  5
4B5
  8
0
  6
CONTINUOUS
 62
     7
 10
80.585952385
 20
111.1747088793
 30
0.0
  0
VERTEX
  5
4B6
  8
0
  6
CONTINUOUS
 62
     7
 10
80.6101873427
 20
111.1758075715
 30
0.0
  0
VERTEX
  5
4B7
  8
0
  6
CONTINUOUS
 62
     7
 10
80.6369091589
 20
111.1770365945
 30
0.0
  0
SEQEND
  5
5EC
  8
0
  6
CONTINUOUS
 62
     7
  0
LINE
  5
1A2
  8
0
  6
CONTINUOUS
 62
     7
 10
84.3526822722
 20
111.3721148279
 30
0.0
 11
84.1657675629
 21
114.9386599452
 31
0.0
  0
POLYLINE
  5
1A3
  8
0
  6
CONTINUOUS
 62
     7
 66
     1
 10
0.0
 20
0.0
 30
0.0
 70
   128
  0
VERTEX
  5
4B8
  8
0
  6
CONTINUOUS
 62
     7
 10
84.3526822722
 20
111.3721148279
 30
0.0
  0
VERTEX
  5
4B9
  8
0
  6
CONTINUOUS
 62
     7
 10
84.3284652316
 20
111.3706742585
 30
0.0
  0
VERTEX
  5
4BA
  8
0
  6
CONTINUOUS
 62
     7
 10
84.3017613324
 20
111.3691033583
 30
0.0
  0
SEQEND
  5
5ED
  8
0
  6
CONTINUOUS
 62
     7
  0
POLYLINE
  5
1A4
  8
0
  6
CONTINUOUS
 62
     7
 66
     1
 10
0.0
 20
0.0
 30
0.0
 70
   128
  0
VERTEX
  5
4BB
  8
0
  6
CONTINUOUS
 62
     7
 10
84.1657675629
 20
114.9386599452
 30
0.0
  0
VERTEX
  5
4BC
  8
0
  6
CONTINUOUS
 62
     7
 10
84.1415326052
 20
114.9375612529
 30
0.0
  0
VERTEX
  5
4BD
  8
0
  6
CONTINUOUS
 62
     7
 10
84.1148107891
 20
114.93633223
 30
0.0
  0
SEQEND
  5
5EE
  8
0
  6
CONTINUOUS
 62
     7
  0
POLYLINE
  5
1A5
  8
0
  6
CONTINUOUS
 62
     7
 66
     1
 10
0.0
 20
0.0
 30
0.0
 70
   128
  0
VERTEX
  5
4BE
  8
0
  6
CONTINUOUS
 62
     7
 10
84.2553151672
 20
111.317726937
 30
0.0
  0
VERTEX
  5
4BF
  8
0
  6
CONTINUOUS
 62
     7
 10
84.2566182534
 20
111.2910293665
 30
0.0
  0
VERTEX
  5
4C0
  8
0
  6
CONTINUOUS
 62
     7
 10
84.2577913289
 20
111.2668125462
 30
0.0
  0
SEQEND
  5
5EF
  8
0
  6
CONTINUOUS
 62
     7
  0
LINE
  5
1A6
  8
0
  6
CONTINUOUS
 62
     7
 10
80.6913305915
 20
111.0799022591
 30
0.0
 11
84.2577913289
 21
111.2668125462
 31
0.0
  0
POLYLINE
  5
1A7
  8
0
  6
CONTINUOUS
 62
     7
 66
     1
 10
0.0
 20
0.0
 30
0.0
 70
   128
  0
VERTEX
  5
4C1
  8
0
  6
CONTINUOUS
 62
     7
 10
80.6913305915
 20
111.0799022591
 30
0.0
  0
VERTEX
  5
4C2
  8
0
  6
CONTINUOUS
 62
     7
 10
80.6899658938
 20
111.1041090369
 30
0.0
  0
VERTEX
  5
4C3
  8
0
  6
CONTINUOUS
 62
     7
 10
80.6884711854
 20
111.1307965649
 30
0.0
  0
SEQEND
  5
5F0
  8
0
  6
CONTINUOUS
 62
     7
  0
POLYLINE
  5
1A8
  8
0
  6
CONTINUOUS
 62
     7
 66
     1
 10
0.0
 20
0.0
 30
0.0
 70
   128
  0
VERTEX
  5
4C4
  8
0
  6
CONTINUOUS
 62
     7
 10
80.493928619
 20
114.8465562783
 30
0.0
  0
VERTEX
  5
4C5
  8
0
  6
CONTINUOUS
 62
     7
 10
80.4951016945
 20
114.822339458
 30
0.0
  0
VERTEX
  5
4C6
  8
0
  6
CONTINUOUS
 62
     7
 10
80.4964047807
 20
114.7956418874
 30
0.0
  0
SEQEND
  5
5F1
  8
0
  6
CONTINUOUS
 62
     7
  0
LINE
  5
1A9
  8
0
  6
CONTINUOUS
 62
     7
 10
84.0603893564
 20
115.0334665654
 30
0.0
 11
80.493928619
 21
114.8465562783
 31
0.0
  0
POLYLINE
  5
1AA
  8
0
  6
CONTINUOUS
 62
     7
 66
     1
 10
0.0
 20
0.0
 30
0.0
 70
   128
  0
VERTEX
  5
4C7
  8
0
  6
CONTINUOUS
 62
     7
 10
84.0603893564
 20
115.0334665654
 30
0.0
  0
VERTEX
  5
4C8
  8
0
  6
CONTINUOUS
 62
     7
 10
84.0617540541
 20
115.0092597876
 30
0.0
  0
VERTEX
  5
4C9
  8
0
  6
CONTINUOUS
 62
     7
 10
84.0632487625
 20
114.9825722596
 30
0.0
  0
SEQEND
  5
5F2
  8
0
  6
CONTINUOUS
 62
     7
  0
ARC
  5
1AB
  8
0
  6
CONTINUOUS
 62
     7
 10
84.0950179119
 20
112.3145024384
 30
0.0
 40
0.1216252739837988
 50
317.9999999997
 51
47.9999999997
  0
ARC
  5
1AC
  8
0
  6
CONTINUOUS
 62
     7
 10
81.6336780001
 20
111.3375264743
 30
0.0
 40
0.1216252739837787
 50
227.9999999997
 51
317.9999999998
  0
ARC
  5
1AD
  8
0
  6
CONTINUOUS
 62
     7
 10
80.656702036
 20
113.7988663861
 30
0.0
 40
0.1216252739837988
 50
137.9999999997
 51
227.9999999997
  0
ARC
  5
1AE
  8
0
  6
CONTINUOUS
 62
     7
 10
83.1180419478
 20
114.7758423502
 30
0.0
 40
0.1216252739837998
 50
47.9999999997
 51
137.9999999998
  0
ARC
  5
1AF
  8
0
  6
CONTINUOUS
 62
     7
 10
80.7436989042
 20
112.1388672515
 30
0.0
 40
0.1216252739836792
 50
138.0000000002
 51
228.0000000003
  0
ARC
  5
1B0
  8
0
  6
CONTINUOUS
 62
     7
 10
81.4580428132
 20
114.688845482
 30
0.0
 40
0.1216252739836686
 50
48.0000000002
 51
138.0000000003
  0
ARC
  5
1B1
  8
0
  6
CONTINUOUS
 62
     7
 10
83.2936771347
 20
111.4245233425
 30
0.0
 40
0.1216252739836591
 50
228.0000000001
 51
318.0000000003
  0
ARC
  5
1B2
  8
0
  6
CONTINUOUS
 62
     7
 10
84.0080210437
 20
113.974501573
 30
0.0
 40
0.1216252739836792
 50
318.0000000002
 51
48.0000000003
  0
ARC
  5
1B3
  8
0
  6
CONTINUOUS
 62
     7
 10
80.7082456266
 20
111.2046712822
 30
0.0
 40
0.1259102578911208
 50
193.7665439802
 51
262.2794239379
  0
ARC
  5
1B4
  8
0
  6
CONTINUOUS
 62
     7
 10
84.0434743213
 20
114.9086975423
 30
0.0
 40
0.1259102578910888
 50
13.7665439802
 51
82.2794239379
  0
ARC
  5
1B5
  8
0
  6
CONTINUOUS
 62
     7
 10
84.2279270446
 20
111.3891299666
 30
0.0
 40
0.1259102548933959
 50
283.7205751331
 51
352.2334569488
  0
ARC
  5
1B6
  8
0
  6
CONTINUOUS
 62
     7
 10
80.5237929033
 20
114.7242388579
 30
0.0
 40
0.125910254893506
 50
103.7205751331
 51
172.2334569488
  0
CIRCLE
  5
1B7
  8
0
  6
CONTINUOUS
 62
     7
 10
80.7277505373
 20
114.5406488145
 30
0.0
 40
0.045947272860124
  0
LINE
  5
1B8
  8
0
  6
CONTINUOUS
 62
     7
 10
81.6137157598
 20
114.5762686307
 30
0.0
 11
81.4717630878
 21
114.7040833906
 31
0.0
  0
LINE
  5
1B9
  8
0
  6
CONTINUOUS
 62
     7
 10
81.5394260065
 20
114.779230675
 30
0.0
 11
81.4717630878
 21
114.7040833906
 31
0.0
  0
LINE
  5
1BA
  8
0
  6
CONTINUOUS
 62
     7
 10
83.8954441924
 20
113.8188286264
 30
0.0
 11
84.0232589523
 21
113.9607812984
 31
0.0
  0
LINE
  5
1BB
  8
0
  6
CONTINUOUS
 62
     7
 10
84.0984062367
 20
113.8931183797
 30
0.0
 11
84.0232589523
 21
113.9607812984
 31
0.0
  0
LINE
  5
1BC
  8
0
  6
CONTINUOUS
 62
     7
 10
83.1380041881
 20
111.5371001938
 30
0.0
 11
83.2799568601
 21
111.4092854339
 31
0.0
  0
LINE
  5
1BD
  8
0
  6
CONTINUOUS
 62
     7
 10
83.2799568601
 20
111.4092854339
 30
0.0
 11
83.2122939414
 21
111.3341381495
 31
0.0
  0
LINE
  5
1BE
  8
0
  6
CONTINUOUS
 62
     7
 10
80.8562757555
 20
112.2945401981
 30
0.0
 11
80.7284609956
 21
112.1525875261
 31
0.0
  0
LINE
  5
1BF
  8
0
  6
CONTINUOUS
 62
     7
 10
80.6533137112
 20
112.2202504448
 30
0.0
 11
80.7284609956
 21
112.1525875261
 31
0.0
  0
LINE
  5
1C0
  8
0
  6
CONTINUOUS
 62
     7
 10
81.7240631931
 20
111.2561432809
 30
0.0
 11
81.6489159087
 21
111.3238061997
 31
0.0
  0
LINE
  5
1C1
  8
0
  6
CONTINUOUS
 62
     7
 10
84.1764011053
 20
112.4048876314
 30
0.0
 11
84.1087381865
 21
112.329740347
 31
0.0
  0
LINE
  5
1C2
  8
0
  6
CONTINUOUS
 62
     7
 10
84.1087381865
 20
112.329740347
 30
0.0
 11
83.9667855145
 21
112.457555107
 31
0.0
  0
LINE
  5
1C3
  8
0
  6
CONTINUOUS
 62
     7
 10
83.0276567548
 20
114.8572255435
 30
0.0
 11
83.1028040392
 21
114.7895626248
 31
0.0
  0
LINE
  5
1C4
  8
0
  6
CONTINUOUS
 62
     7
 10
80.5753188427
 20
113.7084811931
 30
0.0
 11
80.6429817614
 21
113.7836284775
 31
0.0
  0
LINE
  5
1C5
  8
0
  6
CONTINUOUS
 62
     7
 10
80.6429817614
 20
113.7836284775
 30
0.0
 11
80.7849344334
 21
113.6558137175
 31
0.0
  0
LINE
  5
1C6
  8
0
  6
CONTINUOUS
 62
     7
 10
80.2594401917
 20
114.8021412226
 30
0.0
 11
80.2599533382
 21
114.8372617485
 31
0.0
  0
POLYLINE
  5
1C7
  8
0
  6
CONTINUOUS
 62
     7
 66
     1
 10
0.0
 20
0.0
 30
0.0
 70
   128
  0
VERTEX
  5
4CA
  8
0
  6
CONTINUOUS
 62
     7
 10
80.2599533382
 20
114.8372617485
 30
0.0
  0
VERTEX
  5
4CB
  8
0
  6
CONTINUOUS
 62
     7
 10
80.2732554264
 20
114.8846914889
 30
0.0
  0
VERTEX
  5
4CC
  8
0
  6
CONTINUOUS
 62
     7
 10
80.3000970012
 20
114.9257097879
 30
0.0
  0
SEQEND
  5
5F3
  8
0
  6
CONTINUOUS
 62
     7
  0
ARC
  5
1C8
  8
0
  6
CONTINUOUS
 62
     7
 10
80.4203213285
 20
114.8169469602
 30
0.0
 40
0.1621210706651813
 50
90.5592777853
 51
137.8654357203
  0
LINE
  5
1C9
  8
0
  6
CONTINUOUS
 62
     7
 10
80.4187388512
 20
114.9790603074
 30
0.0
 11
80.493928617
 21
114.8465563171
 31
0.0
  0
LINE
  5
1CA
  8
0
  6
CONTINUOUS
 62
     7
 10
80.3990375969
 20
114.7412539921
 30
0.0
 11
80.2594401918
 21
114.8021412222
 31
0.0
  0
LINE
  5
1CB
  8
0
  6
CONTINUOUS
 62
     7
 10
84.4922797562
 20
111.3112276019
 30
0.0
 11
84.4917666098
 21
111.276107076
 31
0.0
  0
POLYLINE
  5
1CC
  8
0
  6
CONTINUOUS
 62
     7
 66
     1
 10
0.0
 20
0.0
 30
0.0
 70
   128
  0
VERTEX
  5
4CD
  8
0
  6
CONTINUOUS
 62
     7
 10
84.4917666098
 20
111.276107076
 30
0.0
  0
VERTEX
  5
4CE
  8
0
  6
CONTINUOUS
 62
     7
 10
84.4784645215
 20
111.2286773356
 30
0.0
  0
VERTEX
  5
4CF
  8
0
  6
CONTINUOUS
 62
     7
 10
84.4516229467
 20
111.1876590366
 30
0.0
  0
SEQEND
  5
5F4
  8
0
  6
CONTINUOUS
 62
     7
  0
ARC
  5
1CD
  8
0
  6
CONTINUOUS
 62
     7
 10
84.3313986194
 20
111.2964218642
 30
0.0
 40
0.1621210706647894
 50
270.5592777852
 51
317.8654357203
  0
LINE
  5
1CE
  8
0
  6
CONTINUOUS
 62
     7
 10
84.3329810967
 20
111.1343085171
 30
0.0
 11
84.2577913267
 21
111.2668125842
 31
0.0
  0
LINE
  5
1CF
  8
0
  6
CONTINUOUS
 62
     7
 10
84.352682351
 20
111.3721148324
 30
0.0
 11
84.4922797561
 21
111.3112276023
 31
0.0
  0
LINE
  5
1D0
  8
0
  6
CONTINUOUS
 62
     7
 10
80.4534840788
 20
111.0995632895
 30
0.0
 11
80.5859523063
 21
111.1747088752
 31
0.0
  0
LINE
  5
1D1
  8
0
  6
CONTINUOUS
 62
     7
 10
80.6304031636
 20
110.94026463
 30
0.0
 11
80.6913305897
 21
111.0799022971
 31
0.0
  0
LINE
  5
1D2
  8
0
  6
CONTINUOUS
 62
     7
 10
80.5952826377
 20
110.9407777764
 30
0.0
 11
80.6304031636
 21
110.94026463
 31
0.0
  0
POLYLINE
  5
1D3
  8
0
  6
CONTINUOUS
 62
     7
 66
     1
 10
0.0
 20
0.0
 30
0.0
 70
   128
  0
VERTEX
  5
4D0
  8
0
  6
CONTINUOUS
 62
     7
 10
80.5068345983
 20
110.9809214395
 30
0.0
  0
VERTEX
  5
4D1
  8
0
  6
CONTINUOUS
 62
     7
 10
80.5478528973
 20
110.9540798647
 30
0.0
  0
VERTEX
  5
4D2
  8
0
  6
CONTINUOUS
 62
     7
 10
80.5952826377
 20
110.9407777764
 30
0.0
  0
SEQEND
  5
5F5
  8
0
  6
CONTINUOUS
 62
     7
  0
ARC
  5
1D4
  8
0
  6
CONTINUOUS
 62
     7
 10
80.6155961859
 20
111.1011452092
 30
0.0
 40
0.1621198252378719
 50
180.5590848569
 51
227.8656285066
  0
LINE
  5
1D5
  8
0
  6
CONTINUOUS
 62
     7
 10
84.1657676416
 20
114.9386599493
 30
0.0
 11
84.2982358691
 21
115.013805535
 31
0.0
  0
LINE
  5
1D6
  8
0
  6
CONTINUOUS
 62
     7
 10
84.1213167843
 20
115.1731041945
 30
0.0
 11
84.0603893582
 21
115.0334665274
 31
0.0
  0
LINE
  5
1D7
  8
0
  6
CONTINUOUS
 62
     7
 10
84.1564373102
 20
115.172591048
 30
0.0
 11
84.1213167843
 21
115.1731041945
 31
0.0
  0
POLYLINE
  5
1D8
  8
0
  6
CONTINUOUS
 62
     7
 66
     1
 10
0.0
 20
0.0
 30
0.0
 70
   128
  0
VERTEX
  5
4D3
  8
0
  6
CONTINUOUS
 62
     7
 10
84.2448853496
 20
115.132447385
 30
0.0
  0
VERTEX
  5
4D4
  8
0
  6
CONTINUOUS
 62
     7
 10
84.2038670506
 20
115.1592889598
 30
0.0
  0
VERTEX
  5
4D5
  8
0
  6
CONTINUOUS
 62
     7
 10
84.1564373102
 20
115.172591048
 30
0.0
  0
SEQEND
  5
5F6
  8
0
  6
CONTINUOUS
 62
     7
  0
ARC
  5
1D9
  8
0
  6
CONTINUOUS
 62
     7
 10
84.136123762
 20
115.0122236153
 30
0.0
 40
0.1621198252278953
 50
0.5590850006
 51
47.8656285076
  0
LINE
  5
1DA
  8
0
  6
CONTINUOUS
 62
     7
 10
84.1213167843
 20
115.1731041945
 30
0.0
 11
84.0533225011
 21
115.1695407651
 31
0.0
  0
LINE
  5
1DB
  8
0
  6
CONTINUOUS
 62
     7
 10
84.0533225011
 20
115.1695407651
 30
0.0
 11
80.4187388512
 21
114.9790603074
 31
0.0
  0
LINE
  5
1DC
  8
0
  6
CONTINUOUS
 62
     7
 10
80.6983974469
 20
110.9438280594
 30
0.0
 11
84.3329810967
 21
111.1343085171
 31
0.0
  0
LINE
  5
1DD
  8
0
  6
CONTINUOUS
 62
     7
 10
80.6304031636
 20
110.94026463
 30
0.0
 11
80.6983974469
 21
110.9438280594
 31
0.0
  0
LINE
  5
1DE
  8
0
  6
CONTINUOUS
 62
     7
 10
80.2630036211
 20
114.7341469393
 30
0.0
 11
80.4534840788
 21
111.0995632895
 31
0.0
  0
LINE
  5
1DF
  8
0
  6
CONTINUOUS
 62
     7
 10
80.2594401917
 20
114.8021412226
 30
0.0
 11
80.2630036211
 21
114.7341469393
 31
0.0
  0
LINE
  5
1E0
  8
0
  6
CONTINUOUS
 62
     7
 10
84.2982358691
 20
115.013805535
 30
0.0
 11
84.4887163268
 21
111.3792218851
 31
0.0
  0
LINE
  5
1E1
  8
0
  6
CONTINUOUS
 62
     7
 10
84.4887163268
 20
111.3792218851
 30
0.0
 11
84.4922797562
 21
111.3112276019
 31
0.0
  0
LINE
  5
1E2
  8
0
  6
CONTINUOUS
 62
     7
 10
81.5522948067
 20
111.2471412813
 30
0.0
 11
81.6199577255
 21
111.3222885656
 31
0.0
  0
ARC
  5
1E3
  8
0
  6
CONTINUOUS
 62
     7
 10
81.6336780001
 20
111.3375264743
 30
0.0
 40
0.0205046286392084
 50
227.9999999982
 51
317.999999999
  0
LINE
  5
1E4
  8
0
  6
CONTINUOUS
 62
     7
 10
83.3840623277
 20
111.3431401492
 30
0.0
 11
83.3089150434
 21
111.4108030679
 31
0.0
  0
ARC
  5
1E5
  8
0
  6
CONTINUOUS
 62
     7
 10
83.2936771347
 20
111.4245233425
 30
0.0
 40
0.0205046286392008
 50
228.0000000006
 51
318.000000001
  0
LINE
  5
1E6
  8
0
  6
CONTINUOUS
 62
     7
 10
80.6623157109
 20
112.0484820585
 30
0.0
 11
80.7299786296
 21
112.1236293428
 31
0.0
  0
LINE
  5
1E7
  8
0
  6
CONTINUOUS
 62
     7
 10
80.7299786296
 20
112.1236293428
 30
0.0
 11
81.6199577255
 21
111.3222885656
 31
0.0
  0
LINE
  5
1E8
  8
0
  6
CONTINUOUS
 62
     7
 10
84.1854031049
 20
112.233119245
 30
0.0
 11
84.1102558206
 21
112.3007821638
 31
0.0
  0
LINE
  5
1E9
  8
0
  6
CONTINUOUS
 62
     7
 10
83.3089150434
 20
111.4108030679
 30
0.0
 11
84.1102558206
 21
112.3007821638
 31
0.0
  0
ARC
  5
1EA
  8
0
  6
CONTINUOUS
 62
     7
 10
80.7436989042
 20
112.1388672515
 30
0.0
 40
0.0205046286392008
 50
138.0000000003
 51
228.000000001
  0
ARC
  5
1EB
  8
0
  6
CONTINUOUS
 62
     7
 10
84.0950179119
 20
112.3145024384
 30
0.0
 40
0.0205046286392285
 50
317.9999999982
 51
47.9999999989
  0
LINE
  5
1EC
  8
0
  6
CONTINUOUS
 62
     7
 10
80.566316843
 20
113.8802495795
 30
0.0
 11
80.6414641273
 21
113.8125866607
 31
0.0
  0
ARC
  5
1ED
  8
0
  6
CONTINUOUS
 62
     7
 10
80.656702036
 20
113.7988663861
 30
0.0
 40
0.0205046286392179
 50
137.9999999982
 51
227.9999999989
  0
LINE
  5
1EE
  8
0
  6
CONTINUOUS
 62
     7
 10
81.3676576202
 20
114.7702286753
 30
0.0
 11
81.4428049045
 21
114.7025657566
 31
0.0
  0
LINE
  5
1EF
  8
0
  6
CONTINUOUS
 62
     7
 10
81.4428049045
 20
114.7025657566
 30
0.0
 11
80.6414641273
 21
113.8125866607
 31
0.0
  0
LINE
  5
1F0
  8
0
  6
CONTINUOUS
 62
     7
 10
83.1994251412
 20
114.8662275432
 30
0.0
 11
83.1317622224
 21
114.7910802589
 31
0.0
  0
LINE
  5
1F1
  8
0
  6
CONTINUOUS
 62
     7
 10
84.089404237
 20
114.064886766
 30
0.0
 11
84.0217413183
 21
113.9897394817
 31
0.0
  0
LINE
  5
1F2
  8
0
  6
CONTINUOUS
 62
     7
 10
84.0217413183
 20
113.9897394817
 30
0.0
 11
83.1317622224
 21
114.7910802589
 31
0.0
  0
ARC
  5
1F3
  8
0
  6
CONTINUOUS
 62
     7
 10
84.0080210437
 20
113.974501573
 30
0.0
 40
0.0205046286392008
 50
318.0000000003
 51
48.000000001
  0
ARC
  5
1F4
  8
0
  6
CONTINUOUS
 62
     7
 10
83.1180419478
 20
114.7758423502
 30
0.0
 40
0.0205046286392274
 50
47.9999999982
 51
137.9999999989
  0
ARC
  5
1F5
  8
0
  6
CONTINUOUS
 62
     7
 10
81.4580428132
 20
114.688845482
 30
0.0
 40
0.0205046286391913
 50
48.0000000003
 51
138.0000000011
  0
CIRCLE
  5
1F6
  8
0
  6
CONTINUOUS
 62
     7
 10
82.375859974
 20
113.0566844122
 30
0.0
 40
1.69443185918887
  0
CIRCLE
  5
1F7
  8
0
  6
CONTINUOUS
 62
     7
 10
82.375859974
 20
113.0566844122
 30
0.0
 40
1.573024458851768
  0
ARC
  5
1F8
  8
0
  6
CONTINUOUS
 62
     7
 10
84.7066415879
 20
110.9580371978
 30
0.0
 40
0.5322554272015295
 50
272.9992950291
 51
318.0001618182
  0
LINE
  5
1F9
  8
0
  6
CONTINUOUS
 62
     7
 10
84.7344880058
 20
110.4265107205
 30
0.0
 11
84.5388114286
 21
110.8562812378
 31
0.0
  0
LINE
  5
1FA
  8
0
  6
CONTINUOUS
 62
     7
 10
84.5388113604
 20
110.856281227
 30
0.0
 11
84.6528691438
 21
110.8829964338
 31
0.0
  0
LINE
  5
1FB
  8
0
  6
CONTINUOUS
 62
     7
 10
84.6528695892
 20
110.882996696
 30
0.0
 11
84.7043392878
 21
110.9102124459
 31
0.0
  0
LINE
  5
1FC
  8
0
  6
CONTINUOUS
 62
     7
 10
84.7043394478
 20
110.9102125845
 30
0.0
 11
85.1021854475
 21
110.6018899298
 31
0.0
  0
ARC
  5
1FD
  8
0
  6
CONTINUOUS
 62
     7
 10
80.04507836
 20
115.1553316267
 30
0.0
 40
0.5322554271863149
 50
92.9993383344
 51
138.0001618186
  0
LINE
  5
1FE
  8
0
  6
CONTINUOUS
 62
     7
 10
80.0172319421
 20
115.686858104
 30
0.0
 11
80.2129085194
 21
115.2570875867
 31
0.0
  0
LINE
  5
1FF
  8
0
  6
CONTINUOUS
 62
     7
 10
80.2129085875
 20
115.2570875975
 30
0.0
 11
80.0988508041
 21
115.2303723907
 31
0.0
  0
LINE
  5
200
  8
0
  6
CONTINUOUS
 62
     7
 10
80.0988503587
 20
115.2303721285
 30
0.0
 11
80.0473806602
 21
115.2031563786
 31
0.0
  0
LINE
  5
201
  8
0
  6
CONTINUOUS
 62
     7
 10
80.0473805001
 20
115.20315624
 30
0.0
 11
79.6495345004
 21
115.5114788947
 31
0.0
  0
ARC
  5
202
  8
0
  6
CONTINUOUS
 62
     7
 10
84.4745071884
 20
115.3874660262
 30
0.0
 40
0.5322554272054579
 50
2.9993041336
 51
48.0001618186
  0
LINE
  5
203
  8
0
  6
CONTINUOUS
 62
     7
 10
85.0060336657
 20
115.4153124441
 30
0.0
 11
84.5762631484
 21
115.2196358668
 31
0.0
  0
LINE
  5
204
  8
0
  6
CONTINUOUS
 62
     7
 10
84.5762631592
 20
115.2196357987
 30
0.0
 11
84.5495479524
 21
115.3336935821
 31
0.0
  0
LINE
  5
205
  8
0
  6
CONTINUOUS
 62
     7
 10
84.5495476902
 20
115.3336940275
 30
0.0
 11
84.5223319403
 21
115.385163726
 31
0.0
  0
LINE
  5
206
  8
0
  6
CONTINUOUS
 62
     7
 10
84.5223318017
 20
115.3851638861
 30
0.0
 11
84.8306544564
 21
115.7830098858
 31
0.0
  0
ARC
  5
207
  8
0
  6
CONTINUOUS
 62
     7
 10
80.2772136227
 20
110.72590321
 30
0.0
 40
0.5322563107076552
 50
182.9989961738
 51
228.0001224246
  0
LINE
  5
208
  8
0
  6
CONTINUOUS
 62
     7
 10
79.7456862822
 20
110.6980563804
 30
0.0
 11
80.1754567995
 21
110.8937329576
 31
0.0
  0
LINE
  5
209
  8
0
  6
CONTINUOUS
 62
     7
 10
80.1754567887
 20
110.8937330258
 30
0.0
 11
80.2021719956
 21
110.7796752424
 31
0.0
  0
LINE
  5
20A
  8
0
  6
CONTINUOUS
 62
     7
 10
80.2021722577
 20
110.779674797
 30
0.0
 11
80.2293880076
 21
110.7282050984
 31
0.0
  0
LINE
  5
20B
  8
0
  6
CONTINUOUS
 62
     7
 10
80.2293881462
 20
110.7282049384
 30
0.0
 11
79.9210654915
 21
110.3303589387
 31
0.0
  0
LINE
  5
20C
  8
0
  6
CONTINUOUS
 62
     7
 10
84.7344880058
 20
110.4265107205
 30
0.0
 11
84.4759380633
 21
110.8075714701
 31
0.0
  0
LINE
  5
20D
  8
0
  6
CONTINUOUS
 62
     7
 10
84.4759355845
 20
110.8075747041
 30
0.0
 11
84.5388107168
 21
110.85628073
 31
0.0
  0
LINE
  5
20E
  8
0
  6
CONTINUOUS
 62
     7
 10
80.0172319421
 20
115.686858104
 30
0.0
 11
80.2757818846
 21
115.3057973543
 31
0.0
  0
LINE
  5
20F
  8
0
  6
CONTINUOUS
 62
     7
 10
80.2757843634
 20
115.3057941204
 30
0.0
 11
80.2129092311
 21
115.2570880945
 31
0.0
  0
LINE
  5
210
  8
0
  6
CONTINUOUS
 62
     7
 10
84.6249729161
 20
115.1567625016
 30
0.0
 11
85.0060336657
 21
115.4153124441
 31
0.0
  0
LINE
  5
211
  8
0
  6
CONTINUOUS
 62
     7
 10
84.6249696821
 20
115.1567600228
 30
0.0
 11
84.5762636562
 21
115.2196351551
 31
0.0
  0
LINE
  5
212
  8
0
  6
CONTINUOUS
 62
     7
 10
79.7456862822
 20
110.6980563804
 30
0.0
 11
80.1267470319
 21
110.9566063229
 31
0.0
  0
LINE
  5
213
  8
0
  6
CONTINUOUS
 62
     7
 10
80.1267502658
 20
110.9566088017
 30
0.0
 11
80.1754562917
 21
110.8937336694
 31
0.0
  0
LINE
  5
214
  8
0
  6
CONTINUOUS
 62
     7
 10
85.215559695
 20
111.417314132
 30
0.0
 11
84.7763141482
 21
111.4125651981
 31
0.0
  0
LINE
  5
215
  8
0
  6
CONTINUOUS
 62
     7
 10
85.215559695
 20
111.417314132
 30
0.0
 11
84.7749848772
 21
111.3759055681
 31
0.0
  0
LINE
  5
216
  8
0
  6
CONTINUOUS
 62
     7
 10
84.7749850892
 20
111.3759055529
 30
0.0
 11
84.7763141187
 21
111.4125651966
 31
0.0
  0
LINE
  5
217
  8
0
  6
CONTINUOUS
 62
     7
 10
80.7317407598
 20
110.656230238
 30
0.0
 11
80.7364896937
 21
110.2169846912
 31
0.0
  0
LINE
  5
218
  8
0
  6
CONTINUOUS
 62
     7
 10
80.7364896937
 20
110.2169846912
 30
0.0
 11
80.6950811298
 21
110.657559509
 31
0.0
  0
LINE
  5
219
  8
0
  6
CONTINUOUS
 62
     7
 10
80.6950811146
 20
110.657559297
 30
0.0
 11
80.7317407583
 21
110.6562302675
 31
0.0
  0
LINE
  5
21A
  8
0
  6
CONTINUOUS
 62
     7
 10
84.0199791881
 20
115.4571385865
 30
0.0
 11
84.0152302542
 21
115.8963841333
 31
0.0
  0
LINE
  5
21B
  8
0
  6
CONTINUOUS
 62
     7
 10
84.0152302542
 20
115.8963841333
 30
0.0
 11
84.0566388181
 21
115.4558093155
 31
0.0
  0
LINE
  5
21C
  8
0
  6
CONTINUOUS
 62
     7
 10
84.0566388333
 20
115.4558095275
 30
0.0
 11
84.0199791896
 21
115.457138557
 31
0.0
  0
LINE
  5
21D
  8
0
  6
CONTINUOUS
 62
     7
 10
79.9754057997
 20
114.7008036264
 30
0.0
 11
79.5361602529
 21
114.6960546925
 31
0.0
  0
LINE
  5
21E
  8
0
  6
CONTINUOUS
 62
     7
 10
79.5361602529
 20
114.6960546925
 30
0.0
 11
79.9767350707
 21
114.7374632564
 31
0.0
  0
LINE
  5
21F
  8
0
  6
CONTINUOUS
 62
     7
 10
79.9767348587
 20
114.7374632716
 30
0.0
 11
79.9754058292
 21
114.7008036279
 31
0.0
  0
LINE
  5
220
  8
0
  6
CONTINUOUS
 62
     7
 10
84.4687114018
 20
115.4377108923
 30
0.0
 11
84.8306544564
 21
115.7830098858
 31
0.0
  0
POLYLINE
  5
221
  8
0
  6
CONTINUOUS
 62
     7
 66
     1
 10
0.0
 20
0.0
 30
0.0
 70
   128
  0
VERTEX
  5
4D6
  8
0
  6
CONTINUOUS
 62
     7
 10
84.2781991048
 20
115.4851172847
 30
0.0
  0
VERTEX
  5
4D7
  8
0
  6
CONTINUOUS
 62
     7
 10
84.3973992697
 20
115.4699138374
 30
0.0
  0
VERTEX
  5
4D8
  8
0
  6
CONTINUOUS
 62
     7
 10
84.4687119733
 20
115.4377102678
 30
0.0
  0
SEQEND
  5
5F7
  8
0
  6
CONTINUOUS
 62
     7
  0
LINE
  5
222
  8
0
  6
CONTINUOUS
 62
     7
 10
84.4466462644
 20
115.9189938031
 30
0.0
 11
84.2781991048
 21
115.4851172847
 31
0.0
  0
ARC
  5
223
  8
0
  6
CONTINUOUS
 62
     7
 10
84.4745048098
 20
115.3874673781
 30
0.0
 40
0.5322560141925106
 50
47.9998741642
 51
93.0002607698
  0
LINE
  5
224
  8
0
  6
CONTINUOUS
 62
     7
 10
84.756886454
 20
110.9638329844
 30
0.0
 11
85.1021854475
 21
110.6018899298
 31
0.0
  0
POLYLINE
  5
225
  8
0
  6
CONTINUOUS
 62
     7
 66
     1
 10
0.0
 20
0.0
 30
0.0
 70
   128
  0
VERTEX
  5
4D9
  8
0
  6
CONTINUOUS
 62
     7
 10
84.8042928464
 20
111.1543452814
 30
0.0
  0
VERTEX
  5
4DA
  8
0
  6
CONTINUOUS
 62
     7
 10
84.7890893989
 20
111.0351451161
 30
0.0
  0
VERTEX
  5
4DB
  8
0
  6
CONTINUOUS
 62
     7
 10
84.7568858295
 20
110.9638324129
 30
0.0
  0
SEQEND
  5
5F8
  8
0
  6
CONTINUOUS
 62
     7
  0
LINE
  5
226
  8
0
  6
CONTINUOUS
 62
     7
 10
85.238169365
 20
110.9858981172
 30
0.0
 11
84.8042928464
 21
111.1543452814
 31
0.0
  0
ARC
  5
227
  8
0
  6
CONTINUOUS
 62
     7
 10
84.7066429398
 20
110.9580395764
 30
0.0
 40
0.5322560141774103
 50
317.9998741635
 51
3.0002602758
  0
LINE
  5
228
  8
0
  6
CONTINUOUS
 62
     7
 10
79.9948334939
 20
115.1495358401
 30
0.0
 11
79.6495345004
 21
115.5114788947
 31
0.0
  0
POLYLINE
  5
229
  8
0
  6
CONTINUOUS
 62
     7
 66
     1
 10
0.0
 20
0.0
 30
0.0
 70
   128
  0
VERTEX
  5
4DC
  8
0
  6
CONTINUOUS
 62
     7
 10
79.9474271015
 20
114.9590235431
 30
0.0
  0
VERTEX
  5
4DD
  8
0
  6
CONTINUOUS
 62
     7
 10
79.962630549
 20
115.0782237084
 30
0.0
  0
VERTEX
  5
4DE
  8
0
  6
CONTINUOUS
 62
     7
 10
79.9948341184
 20
115.1495364116
 30
0.0
  0
SEQEND
  5
5F9
  8
0
  6
CONTINUOUS
 62
     7
  0
LINE
  5
22A
  8
0
  6
CONTINUOUS
 62
     7
 10
79.5135505608
 20
115.1274706814
 30
0.0
 11
79.9474271015
 21
114.9590235431
 31
0.0
  0
ARC
  5
22B
  8
0
  6
CONTINUOUS
 62
     7
 10
80.0450779218
 20
115.1553289254
 30
0.0
 40
0.5322569090740772
 50
137.9999141676
 51
183.0002231015
  0
LINE
  5
22C
  8
0
  6
CONTINUOUS
 62
     7
 10
80.2830085461
 20
110.6756579322
 30
0.0
 11
79.9210654915
 21
110.3303589387
 31
0.0
  0
POLYLINE
  5
22D
  8
0
  6
CONTINUOUS
 62
     7
 66
     1
 10
0.0
 20
0.0
 30
0.0
 70
   128
  0
VERTEX
  5
4DF
  8
0
  6
CONTINUOUS
 62
     7
 10
80.4735208431
 20
110.6282515398
 30
0.0
  0
VERTEX
  5
4E0
  8
0
  6
CONTINUOUS
 62
     7
 10
80.3543206778
 20
110.6434549873
 30
0.0
  0
VERTEX
  5
4E1
  8
0
  6
CONTINUOUS
 62
     7
 10
80.2830079746
 20
110.6756585567
 30
0.0
  0
SEQEND
  5
5FA
  8
0
  6
CONTINUOUS
 62
     7
  0
LINE
  5
22E
  8
0
  6
CONTINUOUS
 62
     7
 10
80.3050737048
 20
110.1943749991
 30
0.0
 11
80.4735208431
 21
110.6282515398
 31
0.0
  0
ARC
  5
22F
  8
0
  6
CONTINUOUS
 62
     7
 10
80.2772154608
 20
110.7259023601
 30
0.0
 40
0.532256909025546
 50
227.9999141659
 51
273.0002231095
  0
LINE
  5
230
  8
0
  6
CONTINUOUS
 62
     7
 10
80.7317367843
 20
110.6616143236
 30
0.0
 11
80.7317407598
 21
110.656230238
 31
0.0
  0
POLYLINE
  5
231
  8
0
  6
CONTINUOUS
 62
     7
 66
     1
 10
0.0
 20
0.0
 30
0.0
 70
   128
  0
VERTEX
  5
4E2
  8
0
  6
CONTINUOUS
 62
     7
 10
80.7313256641
 20
110.6783247569
 30
0.0
  0
VERTEX
  5
4E3
  8
0
  6
CONTINUOUS
 62
     7
 10
80.7315521811
 20
110.6689672823
 30
0.0
  0
VERTEX
  5
4E4
  8
0
  6
CONTINUOUS
 62
     7
 10
80.7317367803
 20
110.6616143235
 30
0.0
  0
SEQEND
  5
5FB
  8
0
  6
CONTINUOUS
 62
     7
  0
LINE
  5
232
  8
0
  6
CONTINUOUS
 62
     7
 10
80.7313480982
 20
110.6800458768
 30
0.0
 11
80.7313256641
 21
110.6783247569
 31
0.0
  0
LINE
  5
233
  8
0
  6
CONTINUOUS
 62
     7
 10
84.4239065356
 20
110.8735639642
 30
0.0
 11
80.7313480982
 21
110.6800458768
 31
0.0
  0
LINE
  5
234
  8
0
  6
CONTINUOUS
 62
     7
 10
84.4557583525
 20
110.8382271033
 30
0.0
 11
84.4239065356
 21
110.8735639642
 31
0.0
  0
LINE
  5
235
  8
0
  6
CONTINUOUS
 62
     7
 10
84.4635000593
 20
110.8257244326
 30
0.0
 11
84.4557583525
 21
110.8382271033
 31
0.0
  0
LINE
  5
236
  8
0
  6
CONTINUOUS
 62
     7
 10
84.4759380633
 20
110.8075714701
 30
0.0
 11
84.4635000593
 21
110.8257244326
 31
0.0
  0
LINE
  5
237
  8
0
  6
CONTINUOUS
 62
     7
 10
80.7364896937
 20
110.2169846912
 30
0.0
 11
84.7344880058
 21
110.4265107205
 31
0.0
  0
LINE
  5
238
  8
0
  6
CONTINUOUS
 62
     7
 10
79.9807898854
 20
114.7008075978
 30
0.0
 11
79.9754057997
 21
114.7008036264
 31
0.0
  0
LINE
  5
239
  8
0
  6
CONTINUOUS
 62
     7
 10
79.9975003186
 20
114.7012187221
 30
0.0
 11
79.9807898854
 21
114.7008075978
 31
0.0
  0
LINE
  5
23A
  8
0
  6
CONTINUOUS
 62
     7
 10
79.9992214385
 20
114.701196288
 30
0.0
 11
79.9975003186
 21
114.7012187221
 31
0.0
  0
LINE
  5
23B
  8
0
  6
CONTINUOUS
 62
     7
 10
80.1927408233
 20
111.0086388339
 30
0.0
 11
79.9992214385
 21
114.701196288
 31
0.0
  0
LINE
  5
23C
  8
0
  6
CONTINUOUS
 62
     7
 10
80.157402665
 20
110.9767860337
 30
0.0
 11
80.1927408233
 21
111.0086388339
 31
0.0
  0
LINE
  5
23D
  8
0
  6
CONTINUOUS
 62
     7
 10
80.1448999943
 20
110.9690443269
 30
0.0
 11
80.157402665
 21
110.9767860337
 31
0.0
  0
LINE
  5
23E
  8
0
  6
CONTINUOUS
 62
     7
 10
80.1267470319
 20
110.9566063229
 30
0.0
 11
80.1448999943
 21
110.9690443269
 31
0.0
  0
LINE
  5
23F
  8
0
  6
CONTINUOUS
 62
     7
 10
79.5361602529
 20
114.6960546925
 30
0.0
 11
79.7456864655
 21
110.69805639
 31
0.0
  0
LINE
  5
240
  8
0
  6
CONTINUOUS
 62
     7
 10
84.6068199536
 20
115.1443244976
 30
0.0
 11
84.6249729161
 21
115.1567625016
 31
0.0
  0
LINE
  5
241
  8
0
  6
CONTINUOUS
 62
     7
 10
84.7763141482
 20
111.4125651981
 30
0.0
 11
84.7709300626
 21
111.4125612226
 31
0.0
  0
POLYLINE
  5
242
  8
0
  6
CONTINUOUS
 62
     7
 66
     1
 10
0.0
 20
0.0
 30
0.0
 70
   128
  0
VERTEX
  5
4E5
  8
0
  6
CONTINUOUS
 62
     7
 10
84.7542196293
 20
111.4121501024
 30
0.0
  0
VERTEX
  5
4E6
  8
0
  6
CONTINUOUS
 62
     7
 10
84.7635771039
 20
111.4123766194
 30
0.0
  0
VERTEX
  5
4E7
  8
0
  6
CONTINUOUS
 62
     7
 10
84.7709300627
 20
111.4125612186
 30
0.0
  0
SEQEND
  5
5FC
  8
0
  6
CONTINUOUS
 62
     7
  0
LINE
  5
243
  8
0
  6
CONTINUOUS
 62
     7
 10
84.7524985094
 20
111.4121725365
 30
0.0
 11
84.7542196293
 21
111.4121501024
 31
0.0
  0
LINE
  5
244
  8
0
  6
CONTINUOUS
 62
     7
 10
84.5589797118
 20
115.1047304338
 30
0.0
 11
84.7524985094
 21
111.4121725365
 31
0.0
  0
LINE
  5
245
  8
0
  6
CONTINUOUS
 62
     7
 10
84.5589797118
 20
115.1047304338
 30
0.0
 11
84.5943172829
 21
115.1365827908
 31
0.0
  0
LINE
  5
246
  8
0
  6
CONTINUOUS
 62
     7
 10
84.5943172829
 20
115.1365827908
 30
0.0
 11
84.6068199536
 21
115.1443244976
 31
0.0
  0
LINE
  5
247
  8
0
  6
CONTINUOUS
 62
     7
 10
85.006033195
 20
115.4153194694
 30
0.0
 11
85.2155597761
 21
111.4173141362
 31
0.0
  0
POLYLINE
  5
248
  8
0
  6
CONTINUOUS
 62
     7
 66
     1
 10
0.0
 20
0.0
 30
0.0
 70
   128
  0
VERTEX
  5
4E8
  8
0
  6
CONTINUOUS
 62
     7
 10
84.4687113605
 20
115.4377108504
 30
0.0
  0
VERTEX
  5
4E9
  8
0
  6
CONTINUOUS
 62
     7
 10
84.4956398828
 20
115.4111819327
 30
0.0
  0
VERTEX
  5
4EA
  8
0
  6
CONTINUOUS
 62
     7
 10
84.5223318017
 20
115.3851638861
 30
0.0
  0
SEQEND
  5
5FD
  8
0
  6
CONTINUOUS
 62
     7
  0
POLYLINE
  5
249
  8
0
  6
CONTINUOUS
 62
     7
 66
     1
 10
0.0
 20
0.0
 30
0.0
 70
   128
  0
VERTEX
  5
4EB
  8
0
  6
CONTINUOUS
 62
     7
 10
84.7568864121
 20
110.9638330257
 30
0.0
  0
VERTEX
  5
4EC
  8
0
  6
CONTINUOUS
 62
     7
 10
84.7303574944
 20
110.9369045034
 30
0.0
  0
VERTEX
  5
4ED
  8
0
  6
CONTINUOUS
 62
     7
 10
84.7043394478
 20
110.9102125845
 30
0.0
  0
SEQEND
  5
5FE
  8
0
  6
CONTINUOUS
 62
     7
  0
POLYLINE
  5
24A
  8
0
  6
CONTINUOUS
 62
     7
 66
     1
 10
0.0
 20
0.0
 30
0.0
 70
   128
  0
VERTEX
  5
4EE
  8
0
  6
CONTINUOUS
 62
     7
 10
79.9948335358
 20
115.1495357988
 30
0.0
  0
VERTEX
  5
4EF
  8
0
  6
CONTINUOUS
 62
     7
 10
80.0213624535
 20
115.1764643211
 30
0.0
  0
VERTEX
  5
4F0
  8
0
  6
CONTINUOUS
 62
     7
 10
80.0473805001
 20
115.20315624
 30
0.0
  0
SEQEND
  5
5FF
  8
0
  6
CONTINUOUS
 62
     7
  0
POLYLINE
  5
24B
  8
0
  6
CONTINUOUS
 62
     7
 66
     1
 10
0.0
 20
0.0
 30
0.0
 70
   128
  0
VERTEX
  5
4F1
  8
0
  6
CONTINUOUS
 62
     7
 10
80.2830085874
 20
110.6756579741
 30
0.0
  0
VERTEX
  5
4F2
  8
0
  6
CONTINUOUS
 62
     7
 10
80.2560800651
 20
110.7021868918
 30
0.0
  0
VERTEX
  5
4F3
  8
0
  6
CONTINUOUS
 62
     7
 10
80.2293881462
 20
110.7282049384
 30
0.0
  0
SEQEND
  5
600
  8
0
  6
CONTINUOUS
 62
     7
  0
LINE
  5
24C
  8
0
  6
CONTINUOUS
 62
     7
 10
80.2959615954
 20
115.2751417212
 30
0.0
 11
80.3278134324
 21
115.2398048338
 31
0.0
  0
LINE
  5
24D
  8
0
  6
CONTINUOUS
 62
     7
 10
80.2882198886
 20
115.2876443919
 30
0.0
 11
80.2959615954
 21
115.2751417212
 31
0.0
  0
LINE
  5
24E
  8
0
  6
CONTINUOUS
 62
     7
 10
80.2757818846
 20
115.3057973543
 30
0.0
 11
80.2882198886
 21
115.2876443919
 31
0.0
  0
LINE
  5
24F
  8
0
  6
CONTINUOUS
 62
     7
 10
84.0152302542
 20
115.8963841333
 30
0.0
 11
80.0172319517
 21
115.6868579207
 31
0.0
  0
LINE
  5
250
  8
0
  6
CONTINUOUS
 62
     7
 10
84.0199831636
 20
115.4517545009
 30
0.0
 11
84.0199791881
 21
115.4571385865
 31
0.0
  0
POLYLINE
  5
251
  8
0
  6
CONTINUOUS
 62
     7
 66
     1
 10
0.0
 20
0.0
 30
0.0
 70
   128
  0
VERTEX
  5
4F4
  8
0
  6
CONTINUOUS
 62
     7
 10
84.0203942838
 20
115.4350440676
 30
0.0
  0
VERTEX
  5
4F5
  8
0
  6
CONTINUOUS
 62
     7
 10
84.0201677668
 20
115.4444015422
 30
0.0
  0
VERTEX
  5
4F6
  8
0
  6
CONTINUOUS
 62
     7
 10
84.0199831676
 20
115.451754501
 30
0.0
  0
SEQEND
  5
601
  8
0
  6
CONTINUOUS
 62
     7
  0
LINE
  5
252
  8
0
  6
CONTINUOUS
 62
     7
 10
84.0203718497
 20
115.4333229477
 30
0.0
 11
84.0203942838
 21
115.4350440676
 31
0.0
  0
LINE
  5
253
  8
0
  6
CONTINUOUS
 62
     7
 10
80.3278134324
 20
115.2398048338
 30
0.0
 11
84.0203718497
 21
115.4333229477
 31
0.0
  0
LINE
  5
254
  8
0
  6
CONTINUOUS
 62
     7
 10
80.4524581535
 20
110.2020991184
 30
0.0
 11
80.5571299956
 21
110.6372997603
 31
0.0
  0
LINE
  5
255
  8
0
  6
CONTINUOUS
 62
     7
 10
80.5604795183
 20
110.6378101196
 30
0.0
 11
80.557129992
 21
110.6372997585
 31
0.0
  0
LINE
  5
256
  8
0
  6
CONTINUOUS
 62
     7
 10
80.6950811298
 20
110.657559509
 30
0.0
 11
80.5604795183
 21
110.6378101196
 31
0.0
  0
LINE
  5
257
  8
0
  6
CONTINUOUS
 62
     7
 10
80.4524581641
 20
110.2020991289
 30
0.0
 11
80.7364896984
 21
110.2169846008
 31
0.0
  0
LINE
  5
258
  8
0
  6
CONTINUOUS
 62
     7
 10
79.5212746801
 20
114.9800862327
 30
0.0
 11
79.956475322
 21
114.8754143906
 31
0.0
  0
LINE
  5
259
  8
0
  6
CONTINUOUS
 62
     7
 10
79.9569856813
 20
114.8720648679
 30
0.0
 11
79.9564753202
 21
114.8754143942
 31
0.0
  0
LINE
  5
25A
  8
0
  6
CONTINUOUS
 62
     7
 10
79.9767350707
 20
114.7374632564
 30
0.0
 11
79.9569856813
 21
114.8720648679
 31
0.0
  0
LINE
  5
25B
  8
0
  6
CONTINUOUS
 62
     7
 10
79.5212746906
 20
114.9800862221
 30
0.0
 11
79.5361601625
 21
114.6960546878
 31
0.0
  0
LINE
  5
25C
  8
0
  6
CONTINUOUS
 62
     7
 10
85.2304451877
 20
111.1332826111
 30
0.0
 11
84.7952446259
 21
111.2379544339
 31
0.0
  0
LINE
  5
25D
  8
0
  6
CONTINUOUS
 62
     7
 10
84.7947342666
 20
111.2413039566
 30
0.0
 11
84.7952446277
 21
111.2379544303
 31
0.0
  0
LINE
  5
25E
  8
0
  6
CONTINUOUS
 62
     7
 10
84.7749848772
 20
111.3759055681
 30
0.0
 11
84.7947342666
 21
111.2413039566
 31
0.0
  0
LINE
  5
25F
  8
0
  6
CONTINUOUS
 62
     7
 10
85.215559695
 20
111.417314132
 30
0.0
 11
85.2304452113
 21
111.1332826
 31
0.0
  0
LINE
  5
260
  8
0
  6
CONTINUOUS
 62
     7
 10
84.2992617751
 20
115.911269626
 30
0.0
 11
84.1945899523
 21
115.4760690642
 31
0.0
  0
LINE
  5
261
  8
0
  6
CONTINUOUS
 62
     7
 10
84.1912404296
 20
115.4755587049
 30
0.0
 11
84.1945899559
 21
115.476069066
 31
0.0
  0
LINE
  5
262
  8
0
  6
CONTINUOUS
 62
     7
 10
84.0566388181
 20
115.4558093155
 30
0.0
 11
84.1912404296
 21
115.4755587049
 31
0.0
  0
LINE
  5
263
  8
0
  6
CONTINUOUS
 62
     7
 10
84.0152302542
 20
115.8963841333
 30
0.0
 11
84.2992617862
 21
115.9112696496
 31
0.0
  0
LINE
  5
264
  8
0
  6
CONTINUOUS
 62
     7
 10
80.4816306763
 20
110.6287932986
 30
0.0
 11
80.4735208431
 21
110.6282515398
 31
0.0
  0
LINE
  5
265
  8
0
  6
CONTINUOUS
 62
     7
 10
80.5013903807
 20
110.6305373778
 30
0.0
 11
80.4816306763
 21
110.6287932986
 31
0.0
  0
LINE
  5
266
  8
0
  6
CONTINUOUS
 62
     7
 10
80.5571299956
 20
110.6372997603
 30
0.0
 11
80.5013903807
 21
110.6305373778
 31
0.0
  0
LINE
  5
267
  8
0
  6
CONTINUOUS
 62
     7
 10
80.3050737048
 20
110.1943749991
 30
0.0
 11
80.4524581641
 21
110.2020991289
 31
0.0
  0
LINE
  5
268
  8
0
  6
CONTINUOUS
 62
     7
 10
79.9479688603
 20
114.9509137099
 30
0.0
 11
79.9474271015
 21
114.9590235431
 31
0.0
  0
LINE
  5
269
  8
0
  6
CONTINUOUS
 62
     7
 10
79.9497129395
 20
114.9311540055
 30
0.0
 11
79.9479688603
 21
114.9509137099
 31
0.0
  0
LINE
  5
26A
  8
0
  6
CONTINUOUS
 62
     7
 10
79.956475322
 20
114.8754143906
 30
0.0
 11
79.9497129395
 21
114.9311540055
 31
0.0
  0
LINE
  5
26B
  8
0
  6
CONTINUOUS
 62
     7
 10
79.5135505608
 20
115.1274706814
 30
0.0
 11
79.5212746906
 21
114.9800862221
 31
0.0
  0
LINE
  5
26C
  8
0
  6
CONTINUOUS
 62
     7
 10
84.2700892716
 20
115.4845755259
 30
0.0
 11
84.2781991048
 21
115.4851172847
 31
0.0
  0
LINE
  5
26D
  8
0
  6
CONTINUOUS
 62
     7
 10
84.2503295673
 20
115.4828314467
 30
0.0
 11
84.2700892716
 21
115.4845755259
 31
0.0
  0
LINE
  5
26E
  8
0
  6
CONTINUOUS
 62
     7
 10
84.1945899523
 20
115.4760690642
 30
0.0
 11
84.2503295673
 21
115.4828314467
 31
0.0
  0
LINE
  5
26F
  8
0
  6
CONTINUOUS
 62
     7
 10
84.2992617862
 20
115.9112696496
 30
0.0
 11
84.4466462644
 21
115.9189938031
 31
0.0
  0
LINE
  5
270
  8
0
  6
CONTINUOUS
 62
     7
 10
84.8037510876
 20
111.1624551146
 30
0.0
 11
84.8042928464
 21
111.1543452814
 31
0.0
  0
LINE
  5
271
  8
0
  6
CONTINUOUS
 62
     7
 10
84.8020070084
 20
111.1822148189
 30
0.0
 11
84.8037510876
 21
111.1624551146
 31
0.0
  0
LINE
  5
272
  8
0
  6
CONTINUOUS
 62
     7
 10
84.7952446259
 20
111.2379544339
 30
0.0
 11
84.8020070084
 21
111.1822148189
 31
0.0
  0
LINE
  5
273
  8
0
  6
CONTINUOUS
 62
     7
 10
85.2304452113
 20
111.1332826
 30
0.0
 11
85.238169365
 21
110.9858981172
 31
0.0
  0
LINE
  5
274
  8
0
  6
CONTINUOUS
 62
     7
 10
80.0473806602
 20
115.2031563786
 30
0.0
 11
80.0952714459
 21
115.1619428083
 31
0.0
  0
POLYLINE
  5
275
  8
0
  6
CONTINUOUS
 62
     7
 66
     1
 10
0.0
 20
0.0
 30
0.0
 70
   128
  0
VERTEX
  5
4F7
  8
0
  6
CONTINUOUS
 62
     7
 10
80.0456770245
 20
115.1014113421
 30
0.0
  0
VERTEX
  5
4F8
  8
0
  6
CONTINUOUS
 62
     7
 10
80.0712493649
 20
115.1313779501
 30
0.0
  0
VERTEX
  5
4F9
  8
0
  6
CONTINUOUS
 62
     7
 10
80.0952710571
 20
115.161942691
 30
0.0
  0
SEQEND
  5
602
  8
0
  6
CONTINUOUS
 62
     7
  0
LINE
  5
276
  8
0
  6
CONTINUOUS
 62
     7
 10
80.0456776163
 20
115.1014107304
 30
0.0
 11
79.9948340816
 21
115.1495363575
 31
0.0
  0
LINE
  5
277
  8
0
  6
CONTINUOUS
 62
     7
 10
84.7043392878
 20
110.9102124459
 30
0.0
 11
84.656448502
 21
110.9514260162
 31
0.0
  0
POLYLINE
  5
278
  8
0
  6
CONTINUOUS
 62
     7
 66
     1
 10
0.0
 20
0.0
 30
0.0
 70
   128
  0
VERTEX
  5
4FA
  8
0
  6
CONTINUOUS
 62
     7
 10
84.7060429234
 20
111.0119574824
 30
0.0
  0
VERTEX
  5
4FB
  8
0
  6
CONTINUOUS
 62
     7
 10
84.680470583
 20
110.9819908744
 30
0.0
  0
VERTEX
  5
4FC
  8
0
  6
CONTINUOUS
 62
     7
 10
84.6564488908
 20
110.9514261335
 30
0.0
  0
SEQEND
  5
603
  8
0
  6
CONTINUOUS
 62
     7
  0
LINE
  5
279
  8
0
  6
CONTINUOUS
 62
     7
 10
84.7060423316
 20
111.0119580941
 30
0.0
 11
84.7568858663
 21
110.963832467
 31
0.0
  0
LINE
  5
27A
  8
0
  6
CONTINUOUS
 62
     7
 10
80.2293880076
 20
110.7282050984
 30
0.0
 11
80.2706015779
 21
110.7760958842
 31
0.0
  0
POLYLINE
  5
27B
  8
0
  6
CONTINUOUS
 62
     7
 66
     1
 10
0.0
 20
0.0
 30
0.0
 70
   128
  0
VERTEX
  5
4FD
  8
0
  6
CONTINUOUS
 62
     7
 10
80.3311330441
 20
110.7265014628
 30
0.0
  0
VERTEX
  5
4FE
  8
0
  6
CONTINUOUS
 62
     7
 10
80.3011664361
 20
110.7520738032
 30
0.0
  0
VERTEX
  5
4FF
  8
0
  6
CONTINUOUS
 62
     7
 10
80.2706016953
 20
110.7760954954
 30
0.0
  0
SEQEND
  5
604
  8
0
  6
CONTINUOUS
 62
     7
  0
LINE
  5
27C
  8
0
  6
CONTINUOUS
 62
     7
 10
80.3311336558
 20
110.7265020546
 30
0.0
 11
80.2830080287
 21
110.6756585199
 31
0.0
  0
LINE
  5
27D
  8
0
  6
CONTINUOUS
 62
     7
 10
84.5223319403
 20
115.385163726
 30
0.0
 11
84.48111837
 21
115.3372729403
 31
0.0
  0
POLYLINE
  5
27E
  8
0
  6
CONTINUOUS
 62
     7
 66
     1
 10
0.0
 20
0.0
 30
0.0
 70
   128
  0
VERTEX
  5
500
  8
0
  6
CONTINUOUS
 62
     7
 10
84.4205869038
 20
115.3868673617
 30
0.0
  0
VERTEX
  5
501
  8
0
  6
CONTINUOUS
 62
     7
 10
84.4505535118
 20
115.3612950213
 30
0.0
  0
VERTEX
  5
502
  8
0
  6
CONTINUOUS
 62
     7
 10
84.4811182527
 20
115.3372733291
 30
0.0
  0
SEQEND
  5
605
  8
0
  6
CONTINUOUS
 62
     7
  0
LINE
  5
27F
  8
0
  6
CONTINUOUS
 62
     7
 10
84.4205862921
 20
115.3868667699
 30
0.0
 11
84.4687119192
 21
115.4377103046
 31
0.0
  0
POLYLINE
  5
280
  8
0
  6
CONTINUOUS
 62
     7
 66
     1
 10
0.0
 20
0.0
 30
0.0
 70
   128
  0
VERTEX
  5
503
  8
0
  6
CONTINUOUS
 62
     7
 10
84.26954834
 20
115.4447054246
 30
0.0
  0
VERTEX
  5
504
  8
0
  6
CONTINUOUS
 62
     7
 10
84.3507427248
 20
115.4276968322
 30
0.0
  0
VERTEX
  5
505
  8
0
  6
CONTINUOUS
 62
     7
 10
84.4205843616
 20
115.3868642325
 30
0.0
  0
SEQEND
  5
606
  8
0
  6
CONTINUOUS
 62
     7
  0
LINE
  5
281
  8
0
  6
CONTINUOUS
 62
     7
 10
84.2781991015
 20
115.4851172842
 30
0.0
 11
84.2695480451
 21
115.4447054925
 31
0.0
  0
POLYLINE
  5
282
  8
0
  6
CONTINUOUS
 62
     7
 66
     1
 10
0.0
 20
0.0
 30
0.0
 70
   128
  0
VERTEX
  5
506
  8
0
  6
CONTINUOUS
 62
     7
 10
84.7638809863
 20
111.1629960462
 30
0.0
  0
VERTEX
  5
507
  8
0
  6
CONTINUOUS
 62
     7
 10
84.7468723939
 20
111.0818016614
 30
0.0
  0
VERTEX
  5
508
  8
0
  6
CONTINUOUS
 62
     7
 10
84.7060397942
 20
111.0119600246
 30
0.0
  0
SEQEND
  5
607
  8
0
  6
CONTINUOUS
 62
     7
  0
LINE
  5
283
  8
0
  6
CONTINUOUS
 62
     7
 10
84.8042928459
 20
111.1543452847
 30
0.0
 11
84.7638810542
 21
111.1629963411
 31
0.0
  0
POLYLINE
  5
284
  8
0
  6
CONTINUOUS
 62
     7
 66
     1
 10
0.0
 20
0.0
 30
0.0
 70
   128
  0
VERTEX
  5
509
  8
0
  6
CONTINUOUS
 62
     7
 10
79.9878389616
 20
114.9503727783
 30
0.0
  0
VERTEX
  5
50A
  8
0
  6
CONTINUOUS
 62
     7
 10
80.004847554
 20
115.0315671631
 30
0.0
  0
VERTEX
  5
50B
  8
0
  6
CONTINUOUS
 62
     7
 10
80.0456801537
 20
115.1014087999
 30
0.0
  0
SEQEND
  5
608
  8
0
  6
CONTINUOUS
 62
     7
  0
LINE
  5
285
  8
0
  6
CONTINUOUS
 62
     7
 10
79.947427102
 20
114.9590235398
 30
0.0
 11
79.9878388937
 21
114.9503724834
 31
0.0
  0
POLYLINE
  5
286
  8
0
  6
CONTINUOUS
 62
     7
 66
     1
 10
0.0
 20
0.0
 30
0.0
 70
   128
  0
VERTEX
  5
50C
  8
0
  6
CONTINUOUS
 62
     7
 10
80.4821716079
 20
110.6686633999
 30
0.0
  0
VERTEX
  5
50D
  8
0
  6
CONTINUOUS
 62
     7
 10
80.4009772231
 20
110.6856719923
 30
0.0
  0
VERTEX
  5
50E
  8
0
  6
CONTINUOUS
 62
     7
 10
80.3311355863
 20
110.726504592
 30
0.0
  0
SEQEND
  5
609
  8
0
  6
CONTINUOUS
 62
     7
  0
LINE
  5
287
  8
0
  6
CONTINUOUS
 62
     7
 10
80.4735208464
 20
110.6282515403
 30
0.0
 11
80.4821719028
 21
110.668663332
 31
0.0
  0
LINE
  5
288
  8
0
  6
CONTINUOUS
 62
     7
 10
80.2175609899
 20
114.9794494443
 30
0.0
 11
80.2364784214
 21
115.0057692962
 31
0.0
  0
LINE
  5
289
  8
0
  6
CONTINUOUS
 62
     7
 10
80.2175605006
 20
114.9794497975
 30
0.0
 11
80.0456770245
 21
115.1014113421
 31
0.0
  0
LINE
  5
28A
  8
0
  6
CONTINUOUS
 62
     7
 10
80.2364786055
 20
115.0057691632
 30
0.0
 11
80.0952710571
 21
115.161942691
 31
0.0
  0
LINE
  5
28B
  8
0
  6
CONTINUOUS
 62
     7
 10
84.534158958
 20
111.1339193802
 30
0.0
 11
84.5152415265
 21
111.1075995283
 31
0.0
  0
LINE
  5
28C
  8
0
  6
CONTINUOUS
 62
     7
 10
84.5341594473
 20
111.133919027
 30
0.0
 11
84.7060429234
 21
111.0119574824
 31
0.0
  0
LINE
  5
28D
  8
0
  6
CONTINUOUS
 62
     7
 10
84.5152413424
 20
111.1075996612
 30
0.0
 11
84.6564488908
 21
110.9514261335
 31
0.0
  0
LINE
  5
28E
  8
0
  6
CONTINUOUS
 62
     7
 10
80.4530949419
 20
110.8983854282
 30
0.0
 11
80.42677509
 21
110.9173028597
 31
0.0
  0
LINE
  5
28F
  8
0
  6
CONTINUOUS
 62
     7
 10
80.4530945887
 20
110.8983849389
 30
0.0
 11
80.3311330441
 21
110.7265014628
 31
0.0
  0
LINE
  5
290
  8
0
  6
CONTINUOUS
 62
     7
 10
80.426775223
 20
110.9173030438
 30
0.0
 11
80.2706016953
 21
110.7760954954
 31
0.0
  0
LINE
  5
291
  8
0
  6
CONTINUOUS
 62
     7
 10
84.298625006
 20
115.2149833963
 30
0.0
 11
84.3249448579
 21
115.1960659648
 31
0.0
  0
LINE
  5
292
  8
0
  6
CONTINUOUS
 62
     7
 10
84.2986253592
 20
115.2149838856
 30
0.0
 11
84.4205869038
 21
115.3868673617
 31
0.0
  0
LINE
  5
293
  8
0
  6
CONTINUOUS
 62
     7
 10
84.324944725
 20
115.1960657807
 30
0.0
 11
84.4811182527
 21
115.3372733291
 31
0.0
  0
POLYLINE
  5
294
  8
0
  6
CONTINUOUS
 62
     7
 66
     1
 10
0.0
 20
0.0
 30
0.0
 70
   128
  0
VERTEX
  5
50F
  8
0
  6
CONTINUOUS
 62
     7
 10
84.1891097488
 20
115.2539209565
 30
0.0
  0
VERTEX
  5
510
  8
0
  6
CONTINUOUS
 62
     7
 10
84.2470014118
 20
115.2427417923
 30
0.0
  0
VERTEX
  5
511
  8
0
  6
CONTINUOUS
 62
     7
 10
84.2986229685
 20
115.2149849839
 30
0.0
  0
SEQEND
  5
60A
  8
0
  6
CONTINUOUS
 62
     7
  0
LINE
  5
295
  8
0
  6
CONTINUOUS
 62
     7
 10
84.2626758171
 20
115.4449562773
 30
0.0
 11
84.1891097488
 21
115.2539209565
 31
0.0
  0
LINE
  5
296
  8
0
  6
CONTINUOUS
 62
     7
 10
84.2695483617
 20
115.4447054387
 30
0.0
 11
84.2626758171
 21
115.4449562773
 31
0.0
  0
POLYLINE
  5
297
  8
0
  6
CONTINUOUS
 62
     7
 66
     1
 10
0.0
 20
0.0
 30
0.0
 70
   128
  0
VERTEX
  5
512
  8
0
  6
CONTINUOUS
 62
     7
 10
80.5626101991
 20
110.859447868
 30
0.0
  0
VERTEX
  5
513
  8
0
  6
CONTINUOUS
 62
     7
 10
80.5047185361
 20
110.8706270322
 30
0.0
  0
VERTEX
  5
514
  8
0
  6
CONTINUOUS
 62
     7
 10
80.4530969794
 20
110.8983838405
 30
0.0
  0
SEQEND
  5
60B
  8
0
  6
CONTINUOUS
 62
     7
  0
LINE
  5
298
  8
0
  6
CONTINUOUS
 62
     7
 10
80.4890441308
 20
110.6684125472
 30
0.0
 11
80.5626101991
 21
110.859447868
 31
0.0
  0
LINE
  5
299
  8
0
  6
CONTINUOUS
 62
     7
 10
80.4821715862
 20
110.6686633858
 30
0.0
 11
80.4890441308
 21
110.6684125471
 31
0.0
  0
POLYLINE
  5
29A
  8
0
  6
CONTINUOUS
 62
     7
 66
     1
 10
0.0
 20
0.0
 30
0.0
 70
   128
  0
VERTEX
  5
515
  8
0
  6
CONTINUOUS
 62
     7
 10
84.5730965182
 20
111.2434346374
 30
0.0
  0
VERTEX
  5
516
  8
0
  6
CONTINUOUS
 62
     7
 10
84.561917354
 20
111.1855429744
 30
0.0
  0
VERTEX
  5
517
  8
0
  6
CONTINUOUS
 62
     7
 10
84.5341605457
 20
111.1339214177
 30
0.0
  0
SEQEND
  5
60C
  8
0
  6
CONTINUOUS
 62
     7
  0
LINE
  5
29B
  8
0
  6
CONTINUOUS
 62
     7
 10
84.764131839
 20
111.1698685691
 30
0.0
 11
84.5730965182
 21
111.2434346374
 31
0.0
  0
LINE
  5
29C
  8
0
  6
CONTINUOUS
 62
     7
 10
84.7638810004
 20
111.1629960245
 30
0.0
 11
84.7641318391
 21
111.1698685691
 31
0.0
  0
POLYLINE
  5
29D
  8
0
  6
CONTINUOUS
 62
     7
 66
     1
 10
0.0
 20
0.0
 30
0.0
 70
   128
  0
VERTEX
  5
518
  8
0
  6
CONTINUOUS
 62
     7
 10
80.1786234297
 20
114.8699341871
 30
0.0
  0
VERTEX
  5
519
  8
0
  6
CONTINUOUS
 62
     7
 10
80.1898025939
 20
114.9278258501
 30
0.0
  0
VERTEX
  5
51A
  8
0
  6
CONTINUOUS
 62
     7
 10
80.2175594023
 20
114.9794474068
 30
0.0
  0
SEQEND
  5
60D
  8
0
  6
CONTINUOUS
 62
     7
  0
LINE
  5
29E
  8
0
  6
CONTINUOUS
 62
     7
 10
79.9875881089
 20
114.9435002554
 30
0.0
 11
80.1786234297
 21
114.8699341871
 31
0.0
  0
LINE
  5
29F
  8
0
  6
CONTINUOUS
 62
     7
 10
79.9878389475
 20
114.9503728
 30
0.0
 11
79.9875881089
 21
114.9435002554
 31
0.0
  0
LINE
  5
2A0
  8
0
  6
CONTINUOUS
 62
     7
 10
80.0952714459
 20
115.1619428083
 30
0.0
 11
80.1318612523
 21
115.1964383727
 31
0.0
  0
LINE
  5
2A1
  8
0
  6
CONTINUOUS
 62
     7
 10
80.1318612523
 20
115.1964383727
 30
0.0
 11
80.0988503587
 21
115.2303721285
 31
0.0
  0
LINE
  5
2A2
  8
0
  6
CONTINUOUS
 62
     7
 10
84.656448502
 20
110.9514260162
 30
0.0
 11
84.6198586956
 21
110.9169304518
 31
0.0
  0
LINE
  5
2A3
  8
0
  6
CONTINUOUS
 62
     7
 10
84.6198586956
 20
110.9169304518
 30
0.0
 11
84.6528695892
 21
110.882996696
 31
0.0
  0
LINE
  5
2A4
  8
0
  6
CONTINUOUS
 62
     7
 10
80.2706015779
 20
110.7760958842
 30
0.0
 11
80.2361060135
 21
110.8126856906
 31
0.0
  0
LINE
  5
2A5
  8
0
  6
CONTINUOUS
 62
     7
 10
80.2361060135
 20
110.8126856906
 30
0.0
 11
80.2021722577
 21
110.779674797
 31
0.0
  0
LINE
  5
2A6
  8
0
  6
CONTINUOUS
 62
     7
 10
84.48111837
 20
115.3372729403
 30
0.0
 11
84.5156139344
 21
115.3006831339
 31
0.0
  0
LINE
  5
2A7
  8
0
  6
CONTINUOUS
 62
     7
 10
84.5156139344
 20
115.3006831339
 30
0.0
 11
84.5495476902
 21
115.3336940275
 31
0.0
  0
LINE
  5
2A8
  8
0
  6
CONTINUOUS
 62
     7
 10
80.1318612799
 20
115.1964383788
 30
0.0
 11
80.2291973261
 21
115.2323423528
 31
0.0
  0
POLYLINE
  5
2A9
  8
0
  6
CONTINUOUS
 62
     7
 66
     1
 10
0.0
 20
0.0
 30
0.0
 70
   128
  0
VERTEX
  5
51B
  8
0
  6
CONTINUOUS
 62
     7
 10
80.2291967577
 20
115.2323423176
 30
0.0
  0
VERTEX
  5
51C
  8
0
  6
CONTINUOUS
 62
     7
 10
80.2419895139
 20
115.2027851002
 30
0.0
  0
VERTEX
  5
51D
  8
0
  6
CONTINUOUS
 62
     7
 10
80.2674387388
 20
115.1664351894
 30
0.0
  0
SEQEND
  5
60E
  8
0
  6
CONTINUOUS
 62
     7
  0
LINE
  5
2AA
  8
0
  6
CONTINUOUS
 62
     7
 10
80.2674387882
 20
115.1664352231
 30
0.0
 11
80.3640549686
 21
115.0541357662
 31
0.0
  0
POLYLINE
  5
2AB
  8
0
  6
CONTINUOUS
 62
     7
 66
     1
 10
0.0
 20
0.0
 30
0.0
 70
   128
  0
VERTEX
  5
51E
  8
0
  6
CONTINUOUS
 62
     7
 10
80.3640549671
 20
115.05413576
 30
0.0
  0
VERTEX
  5
51F
  8
0
  6
CONTINUOUS
 62
     7
 10
80.2962325345
 20
115.0387708985
 30
0.0
  0
VERTEX
  5
520
  8
0
  6
CONTINUOUS
 62
     7
 10
80.2383096469
 20
115.0021391122
 30
0.0
  0
SEQEND
  5
60F
  8
0
  6
CONTINUOUS
 62
     7
  0
LINE
  5
2AC
  8
0
  6
CONTINUOUS
 62
     7
 10
80.2383096669
 20
115.0021391115
 30
0.0
 11
80.2364787047
 21
115.0057691648
 31
0.0
  0
LINE
  5
2AD
  8
0
  6
CONTINUOUS
 62
     7
 10
80.2361060074
 20
110.8126857182
 30
0.0
 11
80.2002020334
 21
110.9100217644
 31
0.0
  0
POLYLINE
  5
2AE
  8
0
  6
CONTINUOUS
 62
     7
 66
     1
 10
0.0
 20
0.0
 30
0.0
 70
   128
  0
VERTEX
  5
521
  8
0
  6
CONTINUOUS
 62
     7
 10
80.2002020686
 20
110.910021196
 30
0.0
  0
VERTEX
  5
522
  8
0
  6
CONTINUOUS
 62
     7
 10
80.229759286
 20
110.9228139522
 30
0.0
  0
VERTEX
  5
523
  8
0
  6
CONTINUOUS
 62
     7
 10
80.2661091968
 20
110.9482631771
 30
0.0
  0
SEQEND
  5
610
  8
0
  6
CONTINUOUS
 62
     7
  0
LINE
  5
2AF
  8
0
  6
CONTINUOUS
 62
     7
 10
80.2661072064
 20
110.9482654142
 30
0.0
 11
80.3784097359
 21
111.044879135
 31
0.0
  0
POLYLINE
  5
2B0
  8
0
  6
CONTINUOUS
 62
     7
 66
     1
 10
0.0
 20
0.0
 30
0.0
 70
   128
  0
VERTEX
  5
524
  8
0
  6
CONTINUOUS
 62
     7
 10
80.3784086262
 20
111.0448794054
 30
0.0
  0
VERTEX
  5
525
  8
0
  6
CONTINUOUS
 62
     7
 10
80.3937734877
 20
110.9770569728
 30
0.0
  0
VERTEX
  5
526
  8
0
  6
CONTINUOUS
 62
     7
 10
80.430405274
 20
110.9191340852
 30
0.0
  0
SEQEND
  5
611
  8
0
  6
CONTINUOUS
 62
     7
  0
LINE
  5
2B1
  8
0
  6
CONTINUOUS
 62
     7
 10
80.4304052747
 20
110.9191341052
 30
0.0
 11
80.4267752214
 21
110.917303143
 31
0.0
  0
LINE
  5
2B2
  8
0
  6
CONTINUOUS
 62
     7
 10
84.619858668
 20
110.9169304457
 30
0.0
 11
84.5225226218
 21
110.8810264717
 31
0.0
  0
POLYLINE
  5
2B3
  8
0
  6
CONTINUOUS
 62
     7
 66
     1
 10
0.0
 20
0.0
 30
0.0
 70
   128
  0
VERTEX
  5
527
  8
0
  6
CONTINUOUS
 62
     7
 10
84.5225231902
 20
110.8810265069
 30
0.0
  0
VERTEX
  5
528
  8
0
  6
CONTINUOUS
 62
     7
 10
84.509730434
 20
110.9105837243
 30
0.0
  0
VERTEX
  5
529
  8
0
  6
CONTINUOUS
 62
     7
 10
84.4842812091
 20
110.9469336351
 30
0.0
  0
SEQEND
  5
612
  8
0
  6
CONTINUOUS
 62
     7
  0
LINE
  5
2B4
  8
0
  6
CONTINUOUS
 62
     7
 10
84.4842811498
 20
110.9469335925
 30
0.0
 11
84.3876649831
 21
111.0592330736
 31
0.0
  0
POLYLINE
  5
2B5
  8
0
  6
CONTINUOUS
 62
     7
 66
     1
 10
0.0
 20
0.0
 30
0.0
 70
   128
  0
VERTEX
  5
52A
  8
0
  6
CONTINUOUS
 62
     7
 10
84.3876649808
 20
111.0592330645
 30
0.0
  0
VERTEX
  5
52B
  8
0
  6
CONTINUOUS
 62
     7
 10
84.4554874134
 20
111.074597926
 30
0.0
  0
VERTEX
  5
52C
  8
0
  6
CONTINUOUS
 62
     7
 10
84.513410301
 20
111.1112297123
 30
0.0
  0
SEQEND
  5
613
  8
0
  6
CONTINUOUS
 62
     7
  0
LINE
  5
2B6
  8
0
  6
CONTINUOUS
 62
     7
 10
84.513410281
 20
111.111229713
 30
0.0
 11
84.5152412433
 21
111.1075996597
 31
0.0
  0
LINE
  5
2B7
  8
0
  6
CONTINUOUS
 62
     7
 10
84.5156139405
 20
115.3006831063
 30
0.0
 11
84.5515179145
 21
115.2033470601
 31
0.0
  0
POLYLINE
  5
2B8
  8
0
  6
CONTINUOUS
 62
     7
 66
     1
 10
0.0
 20
0.0
 30
0.0
 70
   128
  0
VERTEX
  5
52D
  8
0
  6
CONTINUOUS
 62
     7
 10
84.5515178793
 20
115.2033476285
 30
0.0
  0
VERTEX
  5
52E
  8
0
  6
CONTINUOUS
 62
     7
 10
84.5219606619
 20
115.1905548723
 30
0.0
  0
VERTEX
  5
52F
  8
0
  6
CONTINUOUS
 62
     7
 10
84.4856107511
 20
115.1651056474
 30
0.0
  0
SEQEND
  5
614
  8
0
  6
CONTINUOUS
 62
     7
  0
LINE
  5
2B9
  8
0
  6
CONTINUOUS
 62
     7
 10
84.4856108242
 20
115.1651055534
 30
0.0
 11
84.3733112351
 21
115.0684894403
 31
0.0
  0
POLYLINE
  5
2BA
  8
0
  6
CONTINUOUS
 62
     7
 66
     1
 10
0.0
 20
0.0
 30
0.0
 70
   128
  0
VERTEX
  5
530
  8
0
  6
CONTINUOUS
 62
     7
 10
84.3733113217
 20
115.0684894191
 30
0.0
  0
VERTEX
  5
531
  8
0
  6
CONTINUOUS
 62
     7
 10
84.3579464602
 20
115.1363118517
 30
0.0
  0
VERTEX
  5
532
  8
0
  6
CONTINUOUS
 62
     7
 10
84.3213146739
 20
115.1942347393
 30
0.0
  0
SEQEND
  5
615
  8
0
  6
CONTINUOUS
 62
     7
  0
LINE
  5
2BB
  8
0
  6
CONTINUOUS
 62
     7
 10
84.3213146732
 20
115.1942347193
 30
0.0
 11
84.3249447265
 21
115.1960656815
 31
0.0
  0
POLYLINE
  5
2BC
  8
0
  6
CONTINUOUS
 62
     7
 66
     1
 10
0.0
 20
0.0
 30
0.0
 70
   128
  0
VERTEX
  5
533
  8
0
  6
CONTINUOUS
 62
     7
 10
80.2594401786
 20
114.8021412259
 30
0.0
  0
VERTEX
  5
534
  8
0
  6
CONTINUOUS
 62
     7
 10
80.2536470818
 20
114.8035798515
 30
0.0
  0
VERTEX
  5
535
  8
0
  6
CONTINUOUS
 62
     7
 10
80.2490513192
 20
114.8047176392
 30
0.0
  0
SEQEND
  5
616
  8
0
  6
CONTINUOUS
 62
     7
  0
LINE
  5
2BD
  8
0
  6
CONTINUOUS
 62
     7
 10
80.2529740648
 20
114.7336213126
 30
0.0
 11
80.2630036211
 21
114.7341469393
 31
0.0
  0
LINE
  5
2BE
  8
0
  6
CONTINUOUS
 62
     7
 10
80.2490513192
 20
114.8047176392
 30
0.0
 11
80.2529740648
 21
114.7336213126
 31
0.0
  0
LINE
  5
2BF
  8
0
  6
CONTINUOUS
 62
     7
 10
80.4435112166
 20
111.0939692901
 30
0.0
 11
80.4089500356
 21
111.0745408206
 31
0.0
  0
POLYLINE
  5
2C0
  8
0
  6
CONTINUOUS
 62
     7
 66
     1
 10
0.0
 20
0.0
 30
0.0
 70
   128
  0
VERTEX
  5
536
  8
0
  6
CONTINUOUS
 62
     7
 10
80.4089500356
 20
111.0745408206
 30
0.0
  0
VERTEX
  5
537
  8
0
  6
CONTINUOUS
 62
     7
 10
80.3112686489
 20
111.0541711136
 30
0.0
  0
VERTEX
  5
538
  8
0
  6
CONTINUOUS
 62
     7
 10
80.1927408233
 20
111.0086388339
 30
0.0
  0
SEQEND
  5
617
  8
0
  6
CONTINUOUS
 62
     7
  0
POLYLINE
  5
2C1
  8
0
  6
CONTINUOUS
 62
     7
 66
     1
 10
0.0
 20
0.0
 30
0.0
 70
   128
  0
VERTEX
  5
539
  8
0
  6
CONTINUOUS
 62
     7
 10
79.9992214385
 20
114.701196288
 30
0.0
  0
VERTEX
  5
53A
  8
0
  6
CONTINUOUS
 62
     7
 10
80.1132292205
 20
114.7077068066
 30
0.0
  0
VERTEX
  5
53B
  8
0
  6
CONTINUOUS
 62
     7
 10
80.1960994409
 20
114.7233190111
 30
0.0
  0
SEQEND
  5
618
  8
0
  6
CONTINUOUS
 62
     7
  0
LINE
  5
2C2
  8
0
  6
CONTINUOUS
 62
     7
 10
80.1960994409
 20
114.7233190111
 30
0.0
 11
80.2529740648
 21
114.7336213126
 31
0.0
  0
LINE
  5
2C3
  8
0
  6
CONTINUOUS
 62
     7
 10
80.4534840788
 20
111.0995632895
 30
0.0
 11
80.4435112166
 21
111.0939692901
 31
0.0
  0
POLYLINE
  5
2C4
  8
0
  6
CONTINUOUS
 62
     7
 66
     1
 10
0.0
 20
0.0
 30
0.0
 70
   128
  0
VERTEX
  5
53C
  8
0
  6
CONTINUOUS
 62
     7
 10
84.5026686287
 20
111.3086511853
 30
0.0
  0
VERTEX
  5
53D
  8
0
  6
CONTINUOUS
 62
     7
 10
84.4968261612
 20
111.3100981388
 30
0.0
  0
VERTEX
  5
53E
  8
0
  6
CONTINUOUS
 62
     7
 10
84.4922797562
 20
111.3112276019
 30
0.0
  0
SEQEND
  5
619
  8
0
  6
CONTINUOUS
 62
     7
  0
LINE
  5
2C5
  8
0
  6
CONTINUOUS
 62
     7
 10
84.4987458831
 20
111.3797475119
 30
0.0
 11
84.4887163268
 21
111.3792218851
 31
0.0
  0
LINE
  5
2C6
  8
0
  6
CONTINUOUS
 62
     7
 10
84.5026686287
 20
111.3086511853
 30
0.0
 11
84.4987458831
 21
111.3797475119
 31
0.0
  0
LINE
  5
2C7
  8
0
  6
CONTINUOUS
 62
     7
 10
84.3082087313
 20
115.0193995344
 30
0.0
 11
84.3424488706
 21
115.0386448965
 31
0.0
  0
POLYLINE
  5
2C8
  8
0
  6
CONTINUOUS
 62
     7
 66
     1
 10
0.0
 20
0.0
 30
0.0
 70
   128
  0
VERTEX
  5
53F
  8
0
  6
CONTINUOUS
 62
     7
 10
84.3424488706
 20
115.0386448965
 30
0.0
  0
VERTEX
  5
540
  8
0
  6
CONTINUOUS
 62
     7
 10
84.4415213948
 20
115.0596551905
 30
0.0
  0
VERTEX
  5
541
  8
0
  6
CONTINUOUS
 62
     7
 10
84.5589797118
 20
115.1047304338
 30
0.0
  0
SEQEND
  5
61A
  8
0
  6
CONTINUOUS
 62
     7
  0
POLYLINE
  5
2C9
  8
0
  6
CONTINUOUS
 62
     7
 66
     1
 10
0.0
 20
0.0
 30
0.0
 70
   128
  0
VERTEX
  5
542
  8
0
  6
CONTINUOUS
 62
     7
 10
84.7524985094
 20
111.4121725365
 30
0.0
  0
VERTEX
  5
543
  8
0
  6
CONTINUOUS
 62
     7
 10
84.6384907274
 20
111.4056620179
 30
0.0
  0
VERTEX
  5
544
  8
0
  6
CONTINUOUS
 62
     7
 10
84.555620507
 20
111.3900498134
 30
0.0
  0
SEQEND
  5
61B
  8
0
  6
CONTINUOUS
 62
     7
  0
LINE
  5
2CA
  8
0
  6
CONTINUOUS
 62
     7
 10
84.555620507
 20
111.3900498134
 30
0.0
 11
84.4987458831
 21
111.3797475119
 31
0.0
  0
LINE
  5
2CB
  8
0
  6
CONTINUOUS
 62
     7
 10
84.3082087313
 20
115.0193995344
 30
0.0
 11
84.2982358691
 21
115.013805535
 31
0.0
  0
LINE
  5
2CC
  8
0
  6
CONTINUOUS
 62
     7
 10
84.3385750961
 20
111.1243356549
 30
0.0
 11
84.3578284743
 21
111.0900814586
 31
0.0
  0
POLYLINE
  5
2CD
  8
0
  6
CONTINUOUS
 62
     7
 66
     1
 10
0.0
 20
0.0
 30
0.0
 70
   128
  0
VERTEX
  5
545
  8
0
  6
CONTINUOUS
 62
     7
 10
84.3578284743
 20
111.0900814586
 30
0.0
  0
VERTEX
  5
546
  8
0
  6
CONTINUOUS
 62
     7
 10
84.3789043918
 20
110.990892273
 30
0.0
  0
VERTEX
  5
547
  8
0
  6
CONTINUOUS
 62
     7
 10
84.4239065356
 20
110.8735639642
 30
0.0
  0
SEQEND
  5
61C
  8
0
  6
CONTINUOUS
 62
     7
  0
POLYLINE
  5
2CE
  8
0
  6
CONTINUOUS
 62
     7
 66
     1
 10
0.0
 20
0.0
 30
0.0
 70
   128
  0
VERTEX
  5
548
  8
0
  6
CONTINUOUS
 62
     7
 10
80.7313480982
 20
110.6800458768
 30
0.0
  0
VERTEX
  5
549
  8
0
  6
CONTINUOUS
 62
     7
 10
80.7248375796
 20
110.7940536588
 30
0.0
  0
VERTEX
  5
54A
  8
0
  6
CONTINUOUS
 62
     7
 10
80.7092253751
 20
110.8769238792
 30
0.0
  0
SEQEND
  5
61D
  8
0
  6
CONTINUOUS
 62
     7
  0
LINE
  5
2CF
  8
0
  6
CONTINUOUS
 62
     7
 10
80.7092253751
 20
110.8769238792
 30
0.0
 11
80.6989230736
 21
110.9337985031
 31
0.0
  0
LINE
  5
2D0
  8
0
  6
CONTINUOUS
 62
     7
 10
80.6989230736
 20
110.9337985031
 30
0.0
 11
80.6983974469
 21
110.9438280594
 31
0.0
  0
LINE
  5
2D1
  8
0
  6
CONTINUOUS
 62
     7
 10
84.3385750961
 20
111.1243356549
 30
0.0
 11
84.3329810967
 21
111.1343085171
 31
0.0
  0
POLYLINE
  5
2D2
  8
0
  6
CONTINUOUS
 62
     7
 66
     1
 10
0.0
 20
0.0
 30
0.0
 70
   128
  0
VERTEX
  5
54B
  8
0
  6
CONTINUOUS
 62
     7
 10
84.0203718497
 20
115.4333229477
 30
0.0
  0
VERTEX
  5
54C
  8
0
  6
CONTINUOUS
 62
     7
 10
84.0268823683
 20
115.3193151657
 30
0.0
  0
VERTEX
  5
54D
  8
0
  6
CONTINUOUS
 62
     7
 10
84.0424945728
 20
115.2364449453
 30
0.0
  0
SEQEND
  5
61E
  8
0
  6
CONTINUOUS
 62
     7
  0
LINE
  5
2D3
  8
0
  6
CONTINUOUS
 62
     7
 10
84.0424945728
 20
115.2364449453
 30
0.0
 11
84.0527968743
 21
115.1795703214
 31
0.0
  0
LINE
  5
2D4
  8
0
  6
CONTINUOUS
 62
     7
 10
84.0527968743
 20
115.1795703214
 30
0.0
 11
84.0533225011
 21
115.1695407651
 31
0.0
  0
LINE
  5
2D5
  8
0
  6
CONTINUOUS
 62
     7
 10
80.4131448518
 20
114.9890331696
 30
0.0
 11
80.4187388512
 21
114.9790603074
 31
0.0
  0
LINE
  5
2D6
  8
0
  6
CONTINUOUS
 62
     7
 10
80.4131448518
 20
114.9890331696
 30
0.0
 11
80.3939565783
 21
115.0231731994
 31
0.0
  0
POLYLINE
  5
2D7
  8
0
  6
CONTINUOUS
 62
     7
 66
     1
 10
0.0
 20
0.0
 30
0.0
 70
   128
  0
VERTEX
  5
54E
  8
0
  6
CONTINUOUS
 62
     7
 10
80.3939565783
 20
115.0231731994
 30
0.0
  0
VERTEX
  5
54F
  8
0
  6
CONTINUOUS
 62
     7
 10
80.3728786934
 20
115.1223457366
 30
0.0
  0
VERTEX
  5
550
  8
0
  6
CONTINUOUS
 62
     7
 10
80.3278134324
 20
115.2398048338
 30
0.0
  0
SEQEND
  5
61F
  8
0
  6
CONTINUOUS
 62
     7
  0
POLYLINE
  5
2D8
  8
0
  6
CONTINUOUS
 62
     7
 66
     1
 10
0.0
 20
0.0
 30
0.0
 70
   128
  0
VERTEX
  5
551
  8
0
  6
CONTINUOUS
 62
     7
 10
80.627826747
 20
110.9298757575
 30
0.0
  0
VERTEX
  5
552
  8
0
  6
CONTINUOUS
 62
     7
 10
80.6292737005
 20
110.935718225
 30
0.0
  0
VERTEX
  5
553
  8
0
  6
CONTINUOUS
 62
     7
 10
80.6304031636
 20
110.94026463
 30
0.0
  0
SEQEND
  5
620
  8
0
  6
CONTINUOUS
 62
     7
  0
LINE
  5
2D9
  8
0
  6
CONTINUOUS
 62
     7
 10
80.627826747
 20
110.9298757575
 30
0.0
 11
80.6989230736
 21
110.9337985031
 31
0.0
  0
POLYLINE
  5
2DA
  8
0
  6
CONTINUOUS
 62
     7
 66
     1
 10
0.0
 20
0.0
 30
0.0
 70
   128
  0
VERTEX
  5
554
  8
0
  6
CONTINUOUS
 62
     7
 10
84.1238932009
 20
115.183493067
 30
0.0
  0
VERTEX
  5
555
  8
0
  6
CONTINUOUS
 62
     7
 10
84.1224462474
 20
115.1776505995
 30
0.0
  0
VERTEX
  5
556
  8
0
  6
CONTINUOUS
 62
     7
 10
84.1213167843
 20
115.1731041945
 30
0.0
  0
SEQEND
  5
621
  8
0
  6
CONTINUOUS
 62
     7
  0
LINE
  5
2DB
  8
0
  6
CONTINUOUS
 62
     7
 10
84.1238932009
 20
115.183493067
 30
0.0
 11
84.0527968743
 21
115.1795703214
 31
0.0
  0
POLYLINE
  5
2DC
  8
0
  6
CONTINUOUS
 62
     7
 66
     1
 10
0.0
 20
0.0
 30
0.0
 70
   128
  0
VERTEX
  5
557
  8
0
  6
CONTINUOUS
 62
     7
 10
84.1606260034
 20
115.1832046132
 30
0.0
  0
VERTEX
  5
558
  8
0
  6
CONTINUOUS
 62
     7
 10
84.2103247148
 20
115.1697647605
 30
0.0
  0
VERTEX
  5
559
  8
0
  6
CONTINUOUS
 62
     7
 10
84.2532778495
 20
115.1417679626
 30
0.0
  0
SEQEND
  5
622
  8
0
  6
CONTINUOUS
 62
     7
  0
LINE
  5
2DD
  8
0
  6
CONTINUOUS
 62
     7
 10
84.2448853496
 20
115.132447385
 30
0.0
 11
84.2532776057
 21
115.1417679296
 31
0.0
  0
LINE
  5
2DE
  8
0
  6
CONTINUOUS
 62
     7
 10
84.1606260034
 20
115.1832046132
 30
0.0
 11
84.1564373102
 21
115.172591048
 31
0.0
  0
POLYLINE
  5
2DF
  8
0
  6
CONTINUOUS
 62
     7
 66
     1
 10
0.0
 20
0.0
 30
0.0
 70
   128
  0
VERTEX
  5
55A
  8
0
  6
CONTINUOUS
 62
     7
 10
84.5023801749
 20
111.2719183828
 30
0.0
  0
VERTEX
  5
55B
  8
0
  6
CONTINUOUS
 62
     7
 10
84.4889403222
 20
111.2222196714
 30
0.0
  0
VERTEX
  5
55C
  8
0
  6
CONTINUOUS
 62
     7
 10
84.4609435243
 20
111.1792665367
 30
0.0
  0
SEQEND
  5
623
  8
0
  6
CONTINUOUS
 62
     7
  0
LINE
  5
2E0
  8
0
  6
CONTINUOUS
 62
     7
 10
84.4516229467
 20
111.1876590366
 30
0.0
 11
84.4609434913
 21
111.1792667805
 31
0.0
  0
LINE
  5
2E1
  8
0
  6
CONTINUOUS
 62
     7
 10
84.5023801749
 20
111.2719183828
 30
0.0
 11
84.4917666098
 21
111.276107076
 31
0.0
  0
POLYLINE
  5
2E2
  8
0
  6
CONTINUOUS
 62
     7
 66
     1
 10
0.0
 20
0.0
 30
0.0
 70
   128
  0
VERTEX
  5
55D
  8
0
  6
CONTINUOUS
 62
     7
 10
80.249339773
 20
114.8414504417
 30
0.0
  0
VERTEX
  5
55E
  8
0
  6
CONTINUOUS
 62
     7
 10
80.2627796257
 20
114.8911491531
 30
0.0
  0
VERTEX
  5
55F
  8
0
  6
CONTINUOUS
 62
     7
 10
80.2907764236
 20
114.9341022878
 30
0.0
  0
SEQEND
  5
624
  8
0
  6
CONTINUOUS
 62
     7
  0
LINE
  5
2E3
  8
0
  6
CONTINUOUS
 62
     7
 10
80.3000970012
 20
114.9257097879
 30
0.0
 11
80.2907764566
 21
114.934102044
 31
0.0
  0
LINE
  5
2E4
  8
0
  6
CONTINUOUS
 62
     7
 10
80.249339773
 20
114.8414504417
 30
0.0
 11
80.2599533382
 21
114.8372617485
 31
0.0
  0
ARC
  5
2E5
  8
0
  6
CONTINUOUS
 62
     7
 10
84.3371651184
 20
111.2912403576
 30
0.0
 40
0.1669106578125047
 50
270.4840118498
 51
317.866520011
  0
POLYLINE
  5
2E6
  8
0
  6
CONTINUOUS
 62
     7
 66
     1
 10
0.0
 20
0.0
 30
0.0
 70
   128
  0
VERTEX
  5
560
  8
0
  6
CONTINUOUS
 62
     7
 10
80.5910939445
 20
110.9301642113
 30
0.0
  0
VERTEX
  5
561
  8
0
  6
CONTINUOUS
 62
     7
 10
80.5413952332
 20
110.943604064
 30
0.0
  0
VERTEX
  5
562
  8
0
  6
CONTINUOUS
 62
     7
 10
80.4984420984
 20
110.9716008619
 30
0.0
  0
SEQEND
  5
625
  8
0
  6
CONTINUOUS
 62
     7
  0
LINE
  5
2E7
  8
0
  6
CONTINUOUS
 62
     7
 10
80.5068345983
 20
110.9809214395
 30
0.0
 11
80.4984423422
 21
110.9716008949
 31
0.0
  0
LINE
  5
2E8
  8
0
  6
CONTINUOUS
 62
     7
 10
80.5910939445
 20
110.9301642113
 30
0.0
 11
80.5952826377
 21
110.9407777764
 31
0.0
  0
ARC
  5
2E9
  8
0
  6
CONTINUOUS
 62
     7
 10
84.1413040286
 20
115.0179895567
 30
0.0
 40
0.1669106578235468
 50
0.484011824
 51
47.8665200003
  0
ARC
  5
2EA
  8
0
  6
CONTINUOUS
 62
     7
 10
80.4145548296
 20
114.8221284669
 30
0.0
 40
0.1669106578121496
 50
90.4840118497
 51
137.866520011
  0
ARC
  5
2EB
  8
0
  6
CONTINUOUS
 62
     7
 10
80.6104159193
 20
111.0953792678
 30
0.0
 40
0.1669106578268179
 50
180.4840118245
 51
227.8665199998
  0
LINE
  5
2EC
  8
0
  6
CONTINUOUS
 62
     7
 10
80.627826747
 20
110.9298757575
 30
0.0
 11
80.5910939445
 21
110.9301642113
 31
0.0
  0
LINE
  5
2ED
  8
0
  6
CONTINUOUS
 62
     7
 10
84.1238932009
 20
115.183493067
 30
0.0
 11
84.1606260034
 21
115.1832046132
 31
0.0
  0
LINE
  5
2EE
  8
0
  6
CONTINUOUS
 62
     7
 10
84.5026686287
 20
111.3086511853
 30
0.0
 11
84.5023801749
 21
111.2719183828
 31
0.0
  0
LINE
  5
2EF
  8
0
  6
CONTINUOUS
 62
     7
 10
80.2490513192
 20
114.8047176392
 30
0.0
 11
80.249339773
 21
114.8414504417
 31
0.0
  0
LINE
  5
2F0
  8
0
  6
CONTINUOUS
 62
     7
 10
80.1869569795
 20
110.903155581
 30
0.0
 11
80.1754567887
 21
110.8937330258
 31
0.0
  0
LINE
  5
2F1
  8
0
  6
CONTINUOUS
 62
     7
 10
80.2361059972
 20
110.8126857676
 30
0.0
 11
80.1869647507
 21
110.9031579614
 31
0.0
  0
LINE
  5
2F2
  8
0
  6
CONTINUOUS
 62
     7
 10
84.5647629684
 20
115.2102132435
 30
0.0
 11
84.5762631592
 21
115.2196357987
 31
0.0
  0
LINE
  5
2F3
  8
0
  6
CONTINUOUS
 62
     7
 10
84.5156139507
 20
115.3006830569
 30
0.0
 11
84.5647551972
 21
115.2102108631
 31
0.0
  0
LINE
  5
2F4
  8
0
  6
CONTINUOUS
 62
     7
 10
84.5293888052
 20
110.8677814178
 30
0.0
 11
84.5388113604
 21
110.856281227
 31
0.0
  0
LINE
  5
2F5
  8
0
  6
CONTINUOUS
 62
     7
 10
84.6198586186
 20
110.9169304355
 30
0.0
 11
84.5293864248
 21
110.867789189
 31
0.0
  0
LINE
  5
2F6
  8
0
  6
CONTINUOUS
 62
     7
 10
80.2223311427
 20
115.2455874067
 30
0.0
 11
80.2129085875
 21
115.2570875975
 31
0.0
  0
LINE
  5
2F7
  8
0
  6
CONTINUOUS
 62
     7
 10
80.1318613293
 20
115.196438389
 30
0.0
 11
80.2223335231
 21
115.2455796355
 31
0.0
  0
ARC
  5
2F8
  8
0
  6
CONTINUOUS
 62
     7
 10
80.6488436721
 20
110.7970936325
 30
0.0
 40
0.3667862717186
 50
130.849885513
 51
137.5024811912
  0
POLYLINE
  5
2F9
  8
0
  6
CONTINUOUS
 62
     7
 66
     1
 10
0.0
 20
0.0
 30
0.0
 70
   128
  0
VERTEX
  5
563
  8
0
  6
CONTINUOUS
 62
     7
 10
80.4984422515
 20
110.9716010318
 30
0.0
  0
VERTEX
  5
564
  8
0
  6
CONTINUOUS
 62
     7
 10
80.4664637293
 20
110.9447667335
 30
0.0
  0
VERTEX
  5
565
  8
0
  6
CONTINUOUS
 62
     7
 10
80.430405274
 20
110.9191340852
 30
0.0
  0
SEQEND
  5
626
  8
0
  6
CONTINUOUS
 62
     7
  0
LINE
  5
2FA
  8
0
  6
CONTINUOUS
 62
     7
 10
80.1799948859
 20
114.8222726143
 30
0.0
 11
80.2490513192
 21
114.8047176392
 31
0.0
  0
LINE
  5
2FB
  8
0
  6
CONTINUOUS
 62
     7
 10
80.1859824278
 20
114.7395411457
 30
0.0
 11
80.2529740648
 21
114.7336213126
 31
0.0
  0
LINE
  5
2FC
  8
0
  6
CONTINUOUS
 62
     7
 10
80.1859824278
 20
114.7395411457
 30
0.0
 11
80.1799948869
 21
114.822272614
 31
0.0
  0
LINE
  5
2FD
  8
0
  6
CONTINUOUS
 62
     7
 10
80.6102717719
 20
110.8608193242
 30
0.0
 11
80.627826747
 21
110.9298757575
 31
0.0
  0
LINE
  5
2FE
  8
0
  6
CONTINUOUS
 62
     7
 10
80.6930032405
 20
110.8668068661
 30
0.0
 11
80.6989230736
 21
110.9337985031
 31
0.0
  0
LINE
  5
2FF
  8
0
  6
CONTINUOUS
 62
     7
 10
80.6930032405
 20
110.8668068661
 30
0.0
 11
80.6102717722
 21
110.8608193252
 31
0.0
  0
LINE
  5
300
  8
0
  6
CONTINUOUS
 62
     7
 10
84.571725062
 20
111.2910962102
 30
0.0
 11
84.5026686287
 21
111.3086511853
 31
0.0
  0
LINE
  5
301
  8
0
  6
CONTINUOUS
 62
     7
 10
84.5657375201
 20
111.3738276788
 30
0.0
 11
84.4987458831
 21
111.3797475119
 31
0.0
  0
LINE
  5
302
  8
0
  6
CONTINUOUS
 62
     7
 10
84.5657375201
 20
111.3738276788
 30
0.0
 11
84.571725061
 21
111.2910962105
 31
0.0
  0
LINE
  5
303
  8
0
  6
CONTINUOUS
 62
     7
 10
84.141448176
 20
115.2525495003
 30
0.0
 11
84.1238932009
 21
115.183493067
 31
0.0
  0
LINE
  5
304
  8
0
  6
CONTINUOUS
 62
     7
 10
84.0587167074
 20
115.2465619584
 30
0.0
 11
84.0527968743
 21
115.1795703214
 31
0.0
  0
LINE
  5
305
  8
0
  6
CONTINUOUS
 62
     7
 10
84.0587167074
 20
115.2465619584
 30
0.0
 11
84.1414481757
 21
115.2525494993
 31
0.0
  0
POLYLINE
  5
306
  8
0
  6
CONTINUOUS
 62
     7
 66
     1
 10
0.0
 20
0.0
 30
0.0
 70
   128
  0
VERTEX
  5
566
  8
0
  6
CONTINUOUS
 62
     7
 10
84.3733112351
 20
115.0684894403
 30
0.0
  0
VERTEX
  5
567
  8
0
  6
CONTINUOUS
 62
     7
 10
84.3571553295
 20
115.0500515933
 30
0.0
  0
VERTEX
  5
568
  8
0
  6
CONTINUOUS
 62
     7
 10
84.342467864
 20
115.0386457235
 30
0.0
  0
SEQEND
  5
627
  8
0
  6
CONTINUOUS
 62
     7
  0
POLYLINE
  5
307
  8
0
  6
CONTINUOUS
 62
     7
 66
     1
 10
0.0
 20
0.0
 30
0.0
 70
   128
  0
VERTEX
  5
569
  8
0
  6
CONTINUOUS
 62
     7
 10
84.2532776964
 20
115.1417677927
 30
0.0
  0
VERTEX
  5
56A
  8
0
  6
CONTINUOUS
 62
     7
 10
84.2852562186
 20
115.168602091
 30
0.0
  0
VERTEX
  5
56B
  8
0
  6
CONTINUOUS
 62
     7
 10
84.3213146739
 20
115.1942347393
 30
0.0
  0
SEQEND
  5
628
  8
0
  6
CONTINUOUS
 62
     7
  0
POLYLINE
  5
308
  8
0
  6
CONTINUOUS
 62
     7
 66
     1
 10
0.0
 20
0.0
 30
0.0
 70
   128
  0
VERTEX
  5
56C
  8
0
  6
CONTINUOUS
 62
     7
 10
84.3876649831
 20
111.0592330736
 30
0.0
  0
VERTEX
  5
56D
  8
0
  6
CONTINUOUS
 62
     7
 10
84.3692969867
 20
111.0752588454
 30
0.0
  0
VERTEX
  5
56E
  8
0
  6
CONTINUOUS
 62
     7
 10
84.357829311
 20
111.0900622651
 30
0.0
  0
SEQEND
  5
629
  8
0
  6
CONTINUOUS
 62
     7
  0
POLYLINE
  5
309
  8
0
  6
CONTINUOUS
 62
     7
 66
     1
 10
0.0
 20
0.0
 30
0.0
 70
   128
  0
VERTEX
  5
56F
  8
0
  6
CONTINUOUS
 62
     7
 10
84.4609433544
 20
111.1792666898
 30
0.0
  0
VERTEX
  5
570
  8
0
  6
CONTINUOUS
 62
     7
 10
84.4877776527
 20
111.1472881676
 30
0.0
  0
VERTEX
  5
571
  8
0
  6
CONTINUOUS
 62
     7
 10
84.513410301
 20
111.1112297123
 30
0.0
  0
SEQEND
  5
62A
  8
0
  6
CONTINUOUS
 62
     7
  0
POLYLINE
  5
30A
  8
0
  6
CONTINUOUS
 62
     7
 66
     1
 10
0.0
 20
0.0
 30
0.0
 70
   128
  0
VERTEX
  5
572
  8
0
  6
CONTINUOUS
 62
     7
 10
80.3640549686
 20
115.0541357662
 30
0.0
  0
VERTEX
  5
573
  8
0
  6
CONTINUOUS
 62
     7
 10
80.3824309708
 20
115.0381008674
 30
0.0
  0
VERTEX
  5
574
  8
0
  6
CONTINUOUS
 62
     7
 10
80.393955716
 20
115.0231928037
 30
0.0
  0
SEQEND
  5
62B
  8
0
  6
CONTINUOUS
 62
     7
  0
POLYLINE
  5
30B
  8
0
  6
CONTINUOUS
 62
     7
 66
     1
 10
0.0
 20
0.0
 30
0.0
 70
   128
  0
VERTEX
  5
575
  8
0
  6
CONTINUOUS
 62
     7
 10
80.2907765935
 20
114.9341021347
 30
0.0
  0
VERTEX
  5
576
  8
0
  6
CONTINUOUS
 62
     7
 10
80.2639422952
 20
114.9660806569
 30
0.0
  0
VERTEX
  5
577
  8
0
  6
CONTINUOUS
 62
     7
 10
80.2383096469
 20
115.0021391122
 30
0.0
  0
SEQEND
  5
62C
  8
0
  6
CONTINUOUS
 62
     7
  0
LINE
  5
30C
  8
0
  6
CONTINUOUS
 62
     7
 10
80.1859824179
 20
114.7395411433
 30
0.0
 11
80.196099429
 21
114.7233190141
 31
0.0
  0
LINE
  5
30D
  8
0
  6
CONTINUOUS
 62
     7
 10
84.058716705
 20
115.2465619683
 30
0.0
 11
84.0424945758
 21
115.2364449572
 31
0.0
  0
LINE
  5
30E
  8
0
  6
CONTINUOUS
 62
     7
 10
84.56573753
 20
111.3738276812
 30
0.0
 11
84.5556205189
 21
111.3900498104
 31
0.0
  0
LINE
  5
30F
  8
0
  6
CONTINUOUS
 62
     7
 10
80.6930032429
 20
110.8668068562
 30
0.0
 11
80.7092253721
 21
110.8769238673
 31
0.0
  0
POLYLINE
  5
310
  8
0
  6
CONTINUOUS
 62
     7
 66
     1
 10
0.0
 20
0.0
 30
0.0
 70
   128
  0
VERTEX
  5
578
  8
0
  6
CONTINUOUS
 62
     7
 10
80.5626101991
 20
110.859447868
 30
0.0
  0
VERTEX
  5
579
  8
0
  6
CONTINUOUS
 62
     7
 10
80.5772094934
 20
110.8956658165
 30
0.0
  0
VERTEX
  5
57A
  8
0
  6
CONTINUOUS
 62
     7
 10
80.5910939445
 20
110.9301642113
 30
0.0
  0
SEQEND
  5
62D
  8
0
  6
CONTINUOUS
 62
     7
  0
LINE
  5
311
  8
0
  6
CONTINUOUS
 62
     7
 10
80.4530969884
 20
110.8983838449
 30
0.0
 11
80.4537515749
 21
110.8997432211
 31
0.0
  0
ARC
  5
312
  8
0
  6
CONTINUOUS
 62
     7
 10
80.8974871995
 20
110.6735959924
 30
0.0
 40
0.4980400325496606
 50
143.2477837206
 51
152.9946047788
  0
POLYLINE
  5
313
  8
0
  6
CONTINUOUS
 62
     7
 66
     1
 10
0.0
 20
0.0
 30
0.0
 70
   128
  0
VERTEX
  5
57B
  8
0
  6
CONTINUOUS
 62
     7
 10
84.5730965182
 20
111.2434346374
 30
0.0
  0
VERTEX
  5
57C
  8
0
  6
CONTINUOUS
 62
     7
 10
84.5368785697
 20
111.2580339317
 30
0.0
  0
VERTEX
  5
57D
  8
0
  6
CONTINUOUS
 62
     7
 10
84.5023801749
 20
111.2719183828
 30
0.0
  0
SEQEND
  5
62E
  8
0
  6
CONTINUOUS
 62
     7
  0
LINE
  5
314
  8
0
  6
CONTINUOUS
 62
     7
 10
84.5341605413
 20
111.1339214267
 30
0.0
 11
84.5328011651
 21
111.1345760132
 31
0.0
  0
ARC
  5
315
  8
0
  6
CONTINUOUS
 62
     7
 10
84.7589483938
 20
111.5783116378
 30
0.0
 40
0.4980400325483245
 50
233.2477837206
 51
242.9946047788
  0
POLYLINE
  5
316
  8
0
  6
CONTINUOUS
 62
     7
 66
     1
 10
0.0
 20
0.0
 30
0.0
 70
   128
  0
VERTEX
  5
57E
  8
0
  6
CONTINUOUS
 62
     7
 10
80.1786234297
 20
114.8699341871
 30
0.0
  0
VERTEX
  5
57F
  8
0
  6
CONTINUOUS
 62
     7
 10
80.2148413782
 20
114.8553348928
 30
0.0
  0
VERTEX
  5
580
  8
0
  6
CONTINUOUS
 62
     7
 10
80.249339773
 20
114.8414504417
 30
0.0
  0
SEQEND
  5
62F
  8
0
  6
CONTINUOUS
 62
     7
  0
LINE
  5
317
  8
0
  6
CONTINUOUS
 62
     7
 10
80.2175594066
 20
114.9794473978
 30
0.0
 11
80.2189187828
 21
114.9787928113
 31
0.0
  0
ARC
  5
318
  8
0
  6
CONTINUOUS
 62
     7
 10
79.9927715541
 20
114.5350571867
 30
0.0
 40
0.4980400325515567
 50
53.2477837207
 51
62.9946047788
  0
POLYLINE
  5
319
  8
0
  6
CONTINUOUS
 62
     7
 66
     1
 10
0.0
 20
0.0
 30
0.0
 70
   128
  0
VERTEX
  5
581
  8
0
  6
CONTINUOUS
 62
     7
 10
84.1891097488
 20
115.2539209565
 30
0.0
  0
VERTEX
  5
582
  8
0
  6
CONTINUOUS
 62
     7
 10
84.1745104545
 20
115.217703008
 30
0.0
  0
VERTEX
  5
583
  8
0
  6
CONTINUOUS
 62
     7
 10
84.1606260034
 20
115.1832046132
 30
0.0
  0
SEQEND
  5
630
  8
0
  6
CONTINUOUS
 62
     7
  0
LINE
  5
31A
  8
0
  6
CONTINUOUS
 62
     7
 10
84.2986229596
 20
115.2149849796
 30
0.0
 11
84.297968373
 21
115.2136256034
 31
0.0
  0
ARC
  5
31B
  8
0
  6
CONTINUOUS
 62
     7
 10
83.8542327484
 20
115.4397728321
 30
0.0
 40
0.4980400325490556
 50
323.2477837206
 51
332.9946047788
  0
LINE
  5
31C
  8
0
  6
CONTINUOUS
 62
     7
 10
84.297968373
 20
115.2136256034
 30
0.0
 11
84.321315635
 21
115.1942358708
 31
0.0
  0
LINE
  5
31D
  8
0
  6
CONTINUOUS
 62
     7
 10
84.5328011651
 20
111.1345760132
 30
0.0
 11
84.5134114325
 21
111.1112287512
 31
0.0
  0
LINE
  5
31E
  8
0
  6
CONTINUOUS
 62
     7
 10
80.2189187828
 20
114.9787928113
 30
0.0
 11
80.2383085154
 21
115.0021400733
 31
0.0
  0
LINE
  5
31F
  8
0
  6
CONTINUOUS
 62
     7
 10
80.4537515749
 20
110.8997432211
 30
0.0
 11
80.4304043129
 21
110.9191329537
 31
0.0
  0
LINE
  5
320
  8
0
  6
CONTINUOUS
 62
     7
 10
80.6102717719
 20
110.8608193242
 30
0.0
 11
80.5626101991
 21
110.859447868
 31
0.0
  0
LINE
  5
321
  8
0
  6
CONTINUOUS
 62
     7
 10
84.141448176
 20
115.2525495003
 30
0.0
 11
84.1891097488
 21
115.2539209565
 31
0.0
  0
LINE
  5
322
  8
0
  6
CONTINUOUS
 62
     7
 10
84.571725062
 20
111.2910962102
 30
0.0
 11
84.5730965182
 21
111.2434346374
 31
0.0
  0
LINE
  5
323
  8
0
  6
CONTINUOUS
 62
     7
 10
80.1799948859
 20
114.8222726143
 30
0.0
 11
80.1786234297
 21
114.8699341871
 31
0.0
  0
LINE
  5
324
  8
0
  6
CONTINUOUS
 62
     7
 10
80.1869569888
 20
110.9031554056
 30
0.0
 11
80.2002020334
 21
110.9100217644
 31
0.0
  0
LINE
  5
325
  8
0
  6
CONTINUOUS
 62
     7
 10
84.5647629591
 20
115.2102134189
 30
0.0
 11
84.5515179145
 21
115.2033470601
 31
0.0
  0
LINE
  5
326
  8
0
  6
CONTINUOUS
 62
     7
 10
84.5293889806
 20
110.8677814271
 30
0.0
 11
84.5225226218
 21
110.8810264717
 31
0.0
  0
LINE
  5
327
  8
0
  6
CONTINUOUS
 62
     7
 10
80.2223309673
 20
115.2455873974
 30
0.0
 11
80.2291973261
 21
115.2323423528
 31
0.0
  0
POLYLINE
  5
328
  8
0
  6
CONTINUOUS
 62
     7
 66
     1
 10
0.0
 20
0.0
 30
0.0
 70
   128
  0
VERTEX
  5
584
  8
0
  6
CONTINUOUS
 62
     7
 10
84.4856085941
 20
115.1651030826
 30
0.0
  0
VERTEX
  5
585
  8
0
  6
CONTINUOUS
 62
     7
 10
84.5223366037
 20
115.135688367
 30
0.0
  0
VERTEX
  5
586
  8
0
  6
CONTINUOUS
 62
     7
 10
84.5589797118
 20
115.1047304338
 30
0.0
  0
SEQEND
  5
631
  8
0
  6
CONTINUOUS
 62
     7
  0
POLYLINE
  5
329
  8
0
  6
CONTINUOUS
 62
     7
 66
     1
 10
0.0
 20
0.0
 30
0.0
 70
   128
  0
VERTEX
  5
587
  8
0
  6
CONTINUOUS
 62
     7
 10
80.2674403594
 20
115.1664338265
 30
0.0
  0
VERTEX
  5
588
  8
0
  6
CONTINUOUS
 62
     7
 10
80.2968552826
 20
115.2031617867
 30
0.0
  0
VERTEX
  5
589
  8
0
  6
CONTINUOUS
 62
     7
 10
80.3278134324
 20
115.2398048338
 30
0.0
  0
SEQEND
  5
632
  8
0
  6
CONTINUOUS
 62
     7
  0
POLYLINE
  5
32A
  8
0
  6
CONTINUOUS
 62
     7
 66
     1
 10
0.0
 20
0.0
 30
0.0
 70
   128
  0
VERTEX
  5
58A
  8
0
  6
CONTINUOUS
 62
     7
 10
80.1927407723
 20
111.0086388312
 30
0.0
  0
VERTEX
  5
58B
  8
0
  6
CONTINUOUS
 62
     7
 10
80.2293840171
 20
110.9776812052
 30
0.0
  0
VERTEX
  5
58C
  8
0
  6
CONTINUOUS
 62
     7
 10
80.2661120322
 20
110.948266552
 30
0.0
  0
SEQEND
  5
633
  8
0
  6
CONTINUOUS
 62
     7
  0
POLYLINE
  5
32B
  8
0
  6
CONTINUOUS
 62
     7
 66
     1
 10
0.0
 20
0.0
 30
0.0
 70
   128
  0
VERTEX
  5
58D
  8
0
  6
CONTINUOUS
 62
     7
 10
84.484279625
 20
110.9469349673
 30
0.0
  0
VERTEX
  5
58E
  8
0
  6
CONTINUOUS
 62
     7
 10
84.4548646938
 20
110.910207009
 30
0.0
  0
VERTEX
  5
58F
  8
0
  6
CONTINUOUS
 62
     7
 10
84.4239065356
 20
110.8735639642
 30
0.0
  0
SEQEND
  5
634
  8
0
  6
CONTINUOUS
 62
     7
  0
LINE
  5
32C
  8
0
  6
CONTINUOUS
 62
     7
 10
80.4816306763
 20
110.6287932986
 30
0.0
 11
80.4890441311
 21
110.6684125471
 31
0.0
  0
LINE
  5
32D
  8
0
  6
CONTINUOUS
 62
     7
 10
84.8037510876
 20
111.1624551146
 30
0.0
 11
84.7641318391
 21
111.1698685694
 31
0.0
  0
LINE
  5
32E
  8
0
  6
CONTINUOUS
 62
     7
 10
79.9479688603
 20
114.9509137099
 30
0.0
 11
79.9875881088
 21
114.9435002551
 31
0.0
  0
LINE
  5
32F
  8
0
  6
CONTINUOUS
 62
     7
 10
84.2700892716
 20
115.4845755259
 30
0.0
 11
84.2626758168
 21
115.4449562774
 31
0.0
  0
LINE
  5
330
  8
0
  6
CONTINUOUS
 62
     7
 10
80.5077263387
 20
110.6678602276
 30
0.0
 11
80.4890441309
 21
110.6684125409
 31
0.0
  0
LINE
  5
331
  8
0
  6
CONTINUOUS
 62
     7
 10
80.5077262103
 20
110.6678594419
 30
0.0
 11
80.5013903811
 21
110.6305373777
 31
0.0
  0
LINE
  5
332
  8
0
  6
CONTINUOUS
 62
     7
 10
84.7646841586
 20
111.188550777
 30
0.0
 11
84.7641318453
 21
111.1698685692
 31
0.0
  0
LINE
  5
333
  8
0
  6
CONTINUOUS
 62
     7
 10
84.7646849443
 20
111.1885506486
 30
0.0
 11
84.8020070085
 21
111.1822148194
 31
0.0
  0
LINE
  5
334
  8
0
  6
CONTINUOUS
 62
     7
 10
79.9870357893
 20
114.9248180475
 30
0.0
 11
79.9875881026
 21
114.9435002553
 31
0.0
  0
LINE
  5
335
  8
0
  6
CONTINUOUS
 62
     7
 10
79.9870350036
 20
114.9248181759
 30
0.0
 11
79.9497129394
 21
114.9311540051
 31
0.0
  0
LINE
  5
336
  8
0
  6
CONTINUOUS
 62
     7
 10
84.2439936092
 20
115.4455085969
 30
0.0
 11
84.262675817
 21
115.4449562836
 31
0.0
  0
LINE
  5
337
  8
0
  6
CONTINUOUS
 62
     7
 10
84.2439937376
 20
115.4455093826
 30
0.0
 11
84.2503295669
 21
115.4828314468
 31
0.0
  0
LINE
  5
338
  8
0
  6
CONTINUOUS
 62
     7
 10
80.5604285961
 20
110.6660239546
 30
0.0
 11
80.5077262287
 21
110.6678562001
 31
0.0
  0
LINE
  5
339
  8
0
  6
CONTINUOUS
 62
     7
 10
80.5571299962
 20
110.6372997606
 30
0.0
 11
80.5604285961
 21
110.6660239546
 31
0.0
  0
LINE
  5
33A
  8
0
  6
CONTINUOUS
 62
     7
 10
84.7665204316
 20
111.2412530344
 30
0.0
 11
84.7646881861
 21
111.188550667
 31
0.0
  0
LINE
  5
33B
  8
0
  6
CONTINUOUS
 62
     7
 10
84.7952446256
 20
111.2379544345
 30
0.0
 11
84.7665204316
 21
111.2412530344
 31
0.0
  0
LINE
  5
33C
  8
0
  6
CONTINUOUS
 62
     7
 10
79.9851995163
 20
114.8721157901
 30
0.0
 11
79.9870317618
 21
114.9248181575
 31
0.0
  0
LINE
  5
33D
  8
0
  6
CONTINUOUS
 62
     7
 10
79.9564753223
 20
114.87541439
 30
0.0
 11
79.9851995163
 21
114.8721157901
 31
0.0
  0
LINE
  5
33E
  8
0
  6
CONTINUOUS
 62
     7
 10
84.1912913518
 20
115.4473448699
 30
0.0
 11
84.2439937192
 21
115.4455126244
 31
0.0
  0
LINE
  5
33F
  8
0
  6
CONTINUOUS
 62
     7
 10
84.1945899517
 20
115.4760690639
 30
0.0
 11
84.1912913518
 21
115.4473448699
 31
0.0
  0
LINE
  5
340
  8
0
  6
CONTINUOUS
 62
     7
 10
80.5650244844
 20
110.6705110019
 30
0.0
 11
80.6102717719
 21
110.8608193242
 31
0.0
  0
LINE
  5
341
  8
0
  6
CONTINUOUS
 62
     7
 10
80.5077263386
 20
110.6678602275
 30
0.0
 11
80.5650244844
 21
110.6705110019
 31
0.0
  0
LINE
  5
342
  8
0
  6
CONTINUOUS
 62
     7
 10
84.7620333843
 20
111.2458489227
 30
0.0
 11
84.571725062
 21
111.2910962102
 31
0.0
  0
LINE
  5
343
  8
0
  6
CONTINUOUS
 62
     7
 10
84.7646841587
 20
111.1885507769
 30
0.0
 11
84.7620333843
 21
111.2458489227
 31
0.0
  0
LINE
  5
344
  8
0
  6
CONTINUOUS
 62
     7
 10
79.9896865636
 20
114.8675199018
 30
0.0
 11
80.1799948859
 21
114.8222726143
 31
0.0
  0
LINE
  5
345
  8
0
  6
CONTINUOUS
 62
     7
 10
79.9870357892
 20
114.9248180476
 30
0.0
 11
79.9896865636
 21
114.8675199018
 31
0.0
  0
LINE
  5
346
  8
0
  6
CONTINUOUS
 62
     7
 10
84.1866954635
 20
115.4428578226
 30
0.0
 11
84.141448176
 21
115.2525495003
 31
0.0
  0
LINE
  5
347
  8
0
  6
CONTINUOUS
 62
     7
 10
84.2439936093
 20
115.445508597
 30
0.0
 11
84.1866954635
 21
115.4428578226
 31
0.0
  0
LINE
  5
348
  8
0
  6
CONTINUOUS
 62
     7
 10
80.5639426887
 20
110.6659651237
 30
0.0
 11
80.5650223479
 21
110.6705115602
 31
0.0
  0
LINE
  5
349
  8
0
  6
CONTINUOUS
 62
     7
 10
80.5604285955
 20
110.6660239541
 30
0.0
 11
80.5639426887
 21
110.6659651237
 31
0.0
  0
LINE
  5
34A
  8
0
  6
CONTINUOUS
 62
     7
 10
84.7665792625
 20
111.244767127
 30
0.0
 11
84.762032826
 21
111.2458467862
 31
0.0
  0
LINE
  5
34B
  8
0
  6
CONTINUOUS
 62
     7
 10
84.7665204321
 20
111.2412530338
 30
0.0
 11
84.7665792625
 21
111.244767127
 31
0.0
  0
LINE
  5
34C
  8
0
  6
CONTINUOUS
 62
     7
 10
79.9851406855
 20
114.8686016975
 30
0.0
 11
79.9896871219
 21
114.8675220383
 31
0.0
  0
LINE
  5
34D
  8
0
  6
CONTINUOUS
 62
     7
 10
79.9851406853
 20
114.8686016977
 30
0.0
 11
79.9851995158
 21
114.8721157907
 31
0.0
  0
LINE
  5
34E
  8
0
  6
CONTINUOUS
 62
     7
 10
84.1877772592
 20
115.4474037007
 30
0.0
 11
84.1866976
 21
115.4428572643
 31
0.0
  0
LINE
  5
34F
  8
0
  6
CONTINUOUS
 62
     7
 10
84.1912913524
 20
115.4473448704
 30
0.0
 11
84.1877772592
 21
115.4474037007
 31
0.0
  0
LINE
  5
350
  8
0
  6
CONTINUOUS
 62
     7
 10
80.5604795186
 20
110.6378101197
 30
0.0
 11
80.5639426885
 21
110.6659651236
 31
0.0
  0
LINE
  5
351
  8
0
  6
CONTINUOUS
 62
     7
 10
84.7947342665
 20
111.2413039569
 30
0.0
 11
84.7665792626
 21
111.2447671268
 31
0.0
  0
LINE
  5
352
  8
0
  6
CONTINUOUS
 62
     7
 10
79.9569856814
 20
114.8720648676
 30
0.0
 11
79.9851406853
 21
114.8686016977
 31
0.0
  0
LINE
  5
353
  8
0
  6
CONTINUOUS
 62
     7
 10
84.1912404293
 20
115.4755587048
 30
0.0
 11
84.1877772594
 21
115.4474037009
 31
0.0
  0
LINE
  5
354
  8
0
  6
CONTINUOUS
 62
     7
 10
80.6948605018
 20
110.6611802121
 30
0.0
 11
80.5639426892
 21
110.6659651242
 31
0.0
  0
LINE
  5
355
  8
0
  6
CONTINUOUS
 62
     7
 10
80.6950811302
 20
110.6575595094
 30
0.0
 11
80.6948605018
 21
110.6611802121
 31
0.0
  0
LINE
  5
356
  8
0
  6
CONTINUOUS
 62
     7
 10
84.7713641741
 20
111.3756849401
 30
0.0
 11
84.766579262
 21
111.2447671275
 31
0.0
  0
LINE
  5
357
  8
0
  6
CONTINUOUS
 62
     7
 10
84.7749848768
 20
111.3759055685
 30
0.0
 11
84.7713641741
 21
111.3756849401
 31
0.0
  0
LINE
  5
358
  8
0
  6
CONTINUOUS
 62
     7
 10
79.9803557738
 20
114.7376838844
 30
0.0
 11
79.9851406859
 21
114.868601697
 31
0.0
  0
LINE
  5
359
  8
0
  6
CONTINUOUS
 62
     7
 10
79.9767350712
 20
114.737463256
 30
0.0
 11
79.9803557738
 21
114.7376838844
 31
0.0
  0
LINE
  5
35A
  8
0
  6
CONTINUOUS
 62
     7
 10
84.0568594461
 20
115.4521886124
 30
0.0
 11
84.1877772587
 21
115.4474037003
 31
0.0
  0
LINE
  5
35B
  8
0
  6
CONTINUOUS
 62
     7
 10
84.0566388177
 20
115.455809315
 30
0.0
 11
84.0568594461
 21
115.4521886124
 31
0.0
  0
LINE
  5
35C
  8
0
  6
CONTINUOUS
 62
     7
 10
79.99713517
 20
114.7390169845
 30
0.0
 11
79.9896865636
 21
114.8675199018
 31
0.0
  0
LINE
  5
35D
  8
0
  6
CONTINUOUS
 62
     7
 10
79.9803557733
 20
114.7376838848
 30
0.0
 11
79.99713517
 21
114.7390169845
 31
0.0
  0
LINE
  5
35E
  8
0
  6
CONTINUOUS
 62
     7
 10
80.5650244844
 20
110.6705110019
 30
0.0
 11
80.6935274017
 21
110.6779596083
 31
0.0
  0
LINE
  5
35F
  8
0
  6
CONTINUOUS
 62
     7
 10
80.6948605014
 20
110.6611802116
 30
0.0
 11
80.6935274017
 21
110.6779596083
 31
0.0
  0
LINE
  5
360
  8
0
  6
CONTINUOUS
 62
     7
 10
84.7620333843
 20
111.2458489227
 30
0.0
 11
84.7545847779
 21
111.37435184
 31
0.0
  0
LINE
  5
361
  8
0
  6
CONTINUOUS
 62
     7
 10
84.7713641746
 20
111.3756849396
 30
0.0
 11
84.7545847779
 21
111.37435184
 31
0.0
  0
LINE
  5
362
  8
0
  6
CONTINUOUS
 62
     7
 10
84.1866954635
 20
115.4428578226
 30
0.0
 11
84.0581925462
 21
115.4354092162
 31
0.0
  0
LINE
  5
363
  8
0
  6
CONTINUOUS
 62
     7
 10
84.0568594466
 20
115.4521886129
 30
0.0
 11
84.0581925462
 21
115.4354092162
 31
0.0
  0
POLYLINE
  5
364
  8
0
  6
CONTINUOUS
 62
     7
 66
     1
 10
0.0
 20
0.0
 30
0.0
 70
   128
  0
VERTEX
  5
590
  8
0
  6
CONTINUOUS
 62
     7
 10
80.0015603791
 20
114.7394658446
 30
0.0
  0
VERTEX
  5
591
  8
0
  6
CONTINUOUS
 62
     7
 10
80.1140882941
 20
114.7438516325
 30
0.0
  0
VERTEX
  5
592
  8
0
  6
CONTINUOUS
 62
     7
 10
80.1859824278
 20
114.7395411457
 30
0.0
  0
SEQEND
  5
635
  8
0
  6
CONTINUOUS
 62
     7
  0
LINE
  5
365
  8
0
  6
CONTINUOUS
 62
     7
 10
79.99713517
 20
114.7390169845
 30
0.0
 11
80.0015603791
 21
114.7394658446
 31
0.0
  0
POLYLINE
  5
366
  8
0
  6
CONTINUOUS
 62
     7
 66
     1
 10
0.0
 20
0.0
 30
0.0
 70
   128
  0
VERTEX
  5
593
  8
0
  6
CONTINUOUS
 62
     7
 10
80.6930785416
 20
110.6823848174
 30
0.0
  0
VERTEX
  5
594
  8
0
  6
CONTINUOUS
 62
     7
 10
80.6886927537
 20
110.7949127324
 30
0.0
  0
VERTEX
  5
595
  8
0
  6
CONTINUOUS
 62
     7
 10
80.6930032405
 20
110.8668068661
 30
0.0
  0
SEQEND
  5
636
  8
0
  6
CONTINUOUS
 62
     7
  0
LINE
  5
367
  8
0
  6
CONTINUOUS
 62
     7
 10
80.6935274017
 20
110.6779596083
 30
0.0
 11
80.6930785416
 21
110.6823848174
 31
0.0
  0
POLYLINE
  5
368
  8
0
  6
CONTINUOUS
 62
     7
 66
     1
 10
0.0
 20
0.0
 30
0.0
 70
   128
  0
VERTEX
  5
596
  8
0
  6
CONTINUOUS
 62
     7
 10
84.7501595688
 20
111.3739029798
 30
0.0
  0
VERTEX
  5
597
  8
0
  6
CONTINUOUS
 62
     7
 10
84.6376316538
 20
111.369517192
 30
0.0
  0
VERTEX
  5
598
  8
0
  6
CONTINUOUS
 62
     7
 10
84.5657375201
 20
111.3738276788
 30
0.0
  0
SEQEND
  5
637
  8
0
  6
CONTINUOUS
 62
     7
  0
LINE
  5
369
  8
0
  6
CONTINUOUS
 62
     7
 10
84.7545847779
 20
111.37435184
 30
0.0
 11
84.7501595688
 21
111.3739029798
 31
0.0
  0
POLYLINE
  5
36A
  8
0
  6
CONTINUOUS
 62
     7
 66
     1
 10
0.0
 20
0.0
 30
0.0
 70
   128
  0
VERTEX
  5
599
  8
0
  6
CONTINUOUS
 62
     7
 10
84.0586414064
 20
115.4309840071
 30
0.0
  0
VERTEX
  5
59A
  8
0
  6
CONTINUOUS
 62
     7
 10
84.0630271942
 20
115.3184560921
 30
0.0
  0
VERTEX
  5
59B
  8
0
  6
CONTINUOUS
 62
     7
 10
84.0587167074
 20
115.2465619584
 30
0.0
  0
SEQEND
  5
638
  8
0
  6
CONTINUOUS
 62
     7
  0
LINE
  5
36B
  8
0
  6
CONTINUOUS
 62
     7
 10
84.0581925462
 20
115.4354092162
 30
0.0
 11
84.0586414064
 21
115.4309840071
 31
0.0
  0
LINE
  5
36C
  8
0
  6
CONTINUOUS
 62
     7
 10
80.7313480982
 20
110.6800458768
 30
0.0
 11
80.693078557
 21
110.6823848328
 31
0.0
  0
LINE
  5
36D
  8
0
  6
CONTINUOUS
 62
     7
 10
84.7524985094
 20
111.4121725365
 30
0.0
 11
84.7501595534
 21
111.3739029953
 31
0.0
  0
LINE
  5
36E
  8
0
  6
CONTINUOUS
 62
     7
 10
80.0015653576
 20
114.7394655094
 30
0.0
 11
79.9992217509
 21
114.7011963045
 31
0.0
  0
LINE
  5
36F
  8
0
  6
CONTINUOUS
 62
     7
 10
84.0203718497
 20
115.4333229477
 30
0.0
 11
84.0586413909
 21
115.4309839917
 31
0.0
  0
LINE
  5
370
  8
0
  6
CONTINUOUS
 62
     7
 10
80.2002020686
 20
110.910021196
 30
0.0
 11
80.157402665
 21
110.9767860337
 31
0.0
  0
LINE
  5
371
  8
0
  6
CONTINUOUS
 62
     7
 10
84.5515178793
 20
115.2033476285
 30
0.0
 11
84.5943172829
 21
115.1365827908
 31
0.0
  0
LINE
  5
372
  8
0
  6
CONTINUOUS
 62
     7
 10
84.5225231902
 20
110.8810265069
 30
0.0
 11
84.4557583525
 21
110.8382271033
 31
0.0
  0
LINE
  5
373
  8
0
  6
CONTINUOUS
 62
     7
 10
80.2291967577
 20
115.2323423176
 30
0.0
 11
80.2959615954
 21
115.2751417212
 31
0.0
  0
LINE
  5
374
  8
0
  6
CONTINUOUS
 62
     7
 10
80.1448959479
 20
110.9690418253
 30
0.0
 11
80.1869569888
 21
110.9031554056
 31
0.0
  0
LINE
  5
375
  8
0
  6
CONTINUOUS
 62
     7
 10
84.4635000594
 20
110.8257244326
 30
0.0
 11
84.5293861047
 21
110.867786079
 31
0.0
  0
LINE
  5
376
  8
0
  6
CONTINUOUS
 62
     7
 10
80.2882198885
 20
115.2876443919
 30
0.0
 11
80.2223338433
 21
115.2455827455
 31
0.0
  0
LINE
  5
377
  8
0
  6
CONTINUOUS
 62
     7
 10
84.6068199536
 20
115.1443244977
 30
0.0
 11
84.5647583072
 21
115.2102105429
 31
0.0
  0
ARC
  5
378
  8
0
  6
CONTINUOUS
 62
     7
 10
81.2439368086
 20
114.7341183707
 30
0.0
 40
1.263586070349972
 50
179.8383258695
 51
181.5106116424
  0
ARC
  5
379
  8
0
  6
CONTINUOUS
 62
     7
 10
80.6984260155
 20
111.9247612449
 30
0.0
 40
1.263586068289078
 50
269.8383258686
 51
271.5106114602
  0
ARC
  5
37A
  8
0
  6
CONTINUOUS
 62
     7
 10
83.5077831414
 20
111.3792504538
 30
0.0
 40
1.263586068244188
 50
359.8383258685
 51
1.5106114602
  0
ARC
  5
37B
  8
0
  6
CONTINUOUS
 62
     7
 10
84.0532939324
 20
114.1886075796
 30
0.0
 40
1.263586068304497
 50
89.8383258686
 51
91.5106114602
  0
ARC
  5
37C
  8
0
  6
CONTINUOUS
 62
     7
 10
81.2601109683
 20
114.7323170246
 30
0.0
 40
1.262993569503704
 50
179.6960544891
 51
181.4109189616
  0
ARC
  5
37D
  8
0
  6
CONTINUOUS
 62
     7
 10
80.7002273616
 20
111.9409354088
 30
0.0
 40
1.262993571700936
 50
269.6960544911
 51
271.4109189607
  0
ARC
  5
37E
  8
0
  6
CONTINUOUS
 62
     7
 10
83.4916089775
 20
111.3810517999
 30
0.0
 40
1.262993571621742
 50
359.6960544911
 51
1.4109189607
  0
ARC
  5
37F
  8
0
  6
CONTINUOUS
 62
     7
 10
84.0514925863
 20
114.1724334159
 30
0.0
 40
1.262993571523608
 50
89.696054491
 51
91.4109189608
  0
CIRCLE
  5
380
  8
0
  6
CONTINUOUS
 62
     7
 10
82.375859974
 20
113.0566844122
 30
0.0
 40
1.510643428642668
  0
CIRCLE
  5
381
  8
0
  6
CONTINUOUS
 62
     7
 10
82.375859974
 20
113.0566844122
 30
0.0
 40
1.420945502432192
  0
POLYLINE
  5
382
  8
0
  6
CONTINUOUS
 62
     7
 66
     1
 10
0.0
 20
0.0
 30
0.0
 70
   128
  0
VERTEX
  5
59C
  8
0
  6
CONTINUOUS
 62
     7
 10
79.7655150474
 20
123.2462480344
 30
0.0
  0
VERTEX
  5
59D
  8
0
  6
CONTINUOUS
 62
     7
 10
79.7516559197
 20
123.3386593692
 30
0.0
  0
VERTEX
  5
59E
  8
0
  6
CONTINUOUS
 62
     7
 10
79.7034227167
 20
123.3968610737
 30
0.0
  0
SEQEND
  5
639
  8
0
  6
CONTINUOUS
 62
     7
  0
ARC
  5
383
  8
0
  6
CONTINUOUS
 62
     7
 10
79.9273891074
 20
123.4211710173
 30
0.0
 40
0.2252818623738123
 50
73.5902346092
 51
186.194793362
  0
POLYLINE
  5
384
  8
0
  6
CONTINUOUS
 62
     7
 66
     1
 10
0.0
 20
0.0
 30
0.0
 70
   128
  0
VERTEX
  5
59F
  8
0
  6
CONTINUOUS
 62
     7
 10
79.9910323501
 20
123.637276212
 30
0.0
  0
VERTEX
  5
5A0
  8
0
  6
CONTINUOUS
 62
     7
 10
80.0279492886
 20
123.5696150898
 30
0.0
  0
VERTEX
  5
5A1
  8
0
  6
CONTINUOUS
 62
     7
 10
80.1039733279
 20
123.5291675461
 30
0.0
  0
SEQEND
  5
63A
  8
0
  6
CONTINUOUS
 62
     7
  0
LINE
  5
385
  8
0
  6
CONTINUOUS
 62
     7
 10
79.7640049508
 20
119.0697029747
 30
0.0
 11
79.6934050083
 21
119.1535205404
 31
0.0
  0
ARC
  5
386
  8
0
  6
CONTINUOUS
 62
     7
 10
79.8325170798
 20
119.2672990607
 30
0.0
 40
0.1797156646931314
 50
174.1250510129
 51
219.2794265766
  0
LINE
  5
387
  8
0
  6
CONTINUOUS
 62
     7
 10
79.7371917863
 20
120.2358620668
 30
0.0
 11
79.6537453419
 21
119.2856943285
 31
0.0
  0
ARC
  5
388
  8
0
  6
CONTINUOUS
 62
     7
 10
79.9082493921
 20
120.2208434649
 30
0.0
 40
0.1717156532155628
 50
143.5299450333
 51
174.9823827926
  0
ARC
  5
389
  8
0
  6
CONTINUOUS
 62
     7
 10
80.0220862686
 20
121.5190004937
 30
0.0
 40
0.1715453239949196
 50
174.9747432329
 51
206.4482840489
  0
LINE
  5
38A
  8
0
  6
CONTINUOUS
 62
     7
 10
79.9346467818
 20
122.4841947264
 30
0.0
 11
79.8512003369
 21
121.5340269839
 31
0.0
  0
POLYLINE
  5
38B
  8
0
  6
CONTINUOUS
 62
     7
 66
     1
 10
0.0
 20
0.0
 30
0.0
 70
   128
  0
VERTEX
  5
5A2
  8
0
  6
CONTINUOUS
 62
     7
 10
79.9346467818
 20
122.4841947264
 30
0.0
  0
VERTEX
  5
5A3
  8
0
  6
CONTINUOUS
 62
     7
 10
79.9411460092
 20
122.5199850783
 30
0.0
  0
VERTEX
  5
5A4
  8
0
  6
CONTINUOUS
 62
     7
 10
79.9471468232
 20
122.5378855446
 30
0.0
  0
SEQEND
  5
63B
  8
0
  6
CONTINUOUS
 62
     7
  0
POLYLINE
  5
38C
  8
0
  6
CONTINUOUS
 62
     7
 66
     1
 10
0.0
 20
0.0
 30
0.0
 70
   128
  0
VERTEX
  5
5A5
  8
0
  6
CONTINUOUS
 62
     7
 10
79.735256312
 20
119.3940892504
 30
0.0
  0
VERTEX
  5
5A6
  8
0
  6
CONTINUOUS
 62
     7
 10
79.7448712985
 20
119.3020378888
 30
0.0
  0
VERTEX
  5
5A7
  8
0
  6
CONTINUOUS
 62
     7
 10
79.7899964705
 20
119.2211363005
 30
0.0
  0
SEQEND
  5
63C
  8
0
  6
CONTINUOUS
 62
     7
  0
ARC
  5
38D
  8
0
  6
CONTINUOUS
 62
     7
 10
79.8650379423
 20
123.1058038827
 30
0.0
 40
0.1721318283872338
 50
125.3225185501
 51
168.0001037819
  0
LINE
  5
38E
  8
0
  6
CONTINUOUS
 62
     7
 10
79.6966675425
 20
123.1415917972
 30
0.0
 11
79.9346467818
 21
122.4841947264
 31
0.0
  0
POLYLINE
  5
38F
  8
0
  6
CONTINUOUS
 62
     7
 66
     1
 10
0.0
 20
0.0
 30
0.0
 70
   128
  0
VERTEX
  5
5A8
  8
0
  6
CONTINUOUS
 62
     7
 10
79.8512003369
 20
121.5340269839
 30
0.0
  0
VERTEX
  5
5A9
  8
0
  6
CONTINUOUS
 62
     7
 10
79.6672409181
 20
121.558722814
 30
0.0
  0
VERTEX
  5
5AA
  8
0
  6
CONTINUOUS
 62
     7
 10
79.5564689673
 20
121.5452126567
 30
0.0
  0
SEQEND
  5
63D
  8
0
  6
CONTINUOUS
 62
     7
  0
LINE
  5
390
  8
0
  6
CONTINUOUS
 62
     7
 10
79.5564689673
 20
121.5452126565
 30
0.0
 11
79.6966675425
 21
123.1415917972
 31
0.0
  0
ARC
  5
391
  8
0
  6
CONTINUOUS
 62
     7
 10
79.6486097589
 20
118.3136036123
 30
0.0
 40
1.083954260768079
 50
80.0018417274
 51
85.4151349625
  0
LINE
  5
392
  8
0
  6
CONTINUOUS
 62
     7
 10
79.5564689673
 20
121.5452126566
 30
0.0
 11
79.55771963
 21
121.5157772281
 31
0.0
  0
POLYLINE
  5
393
  8
0
  6
CONTINUOUS
 62
     7
 66
     1
 10
0.0
 20
0.0
 30
0.0
 70
   128
  0
VERTEX
  5
5AB
  8
0
  6
CONTINUOUS
 62
     7
 10
79.55771963
 20
121.5157772281
 30
0.0
  0
VERTEX
  5
5AC
  8
0
  6
CONTINUOUS
 62
     7
 10
79.6723386893
 20
121.4977015768
 30
0.0
  0
VERTEX
  5
5AD
  8
0
  6
CONTINUOUS
 62
     7
 10
79.8684954383
 20
121.4425959461
 30
0.0
  0
SEQEND
  5
63E
  8
0
  6
CONTINUOUS
 62
     7
  0
ARC
  5
394
  8
0
  6
CONTINUOUS
 62
     7
 10
79.6631534293
 20
121.4788081754
 30
0.0
 40
0.111727332781219
 50
160.6774160246
 51
174.6142658517
  0
LINE
  5
395
  8
0
  6
CONTINUOUS
 62
     7
 10
79.8859133472
 20
121.3511323546
 30
0.0
 11
79.5519193319
 21
121.4892949509
 31
0.0
  0
LINE
  5
396
  8
0
  6
CONTINUOUS
 62
     7
 10
79.4692640476
 20
120.5481358031
 30
0.0
 11
79.8032580629
 21
120.4099732068
 31
0.0
  0
LINE
  5
397
  8
0
  6
CONTINUOUS
 62
     7
 10
79.5519193319
 20
121.4892949509
 30
0.0
 11
79.4692640476
 21
120.5481358031
 31
0.0
  0
LINE
  5
398
  8
0
  6
CONTINUOUS
 62
     7
 10
79.4700344121
 20
120.5173444519
 30
0.0
 11
79.4637538153
 21
120.489506252
 31
0.0
  0
POLYLINE
  5
399
  8
0
  6
CONTINUOUS
 62
     7
 66
     1
 10
0.0
 20
0.0
 30
0.0
 70
   128
  0
VERTEX
  5
5AE
  8
0
  6
CONTINUOUS
 62
     7
 10
79.7701612229
 20
120.3229116886
 30
0.0
  0
VERTEX
  5
5AF
  8
0
  6
CONTINUOUS
 62
     7
 10
79.5791570285
 20
120.4374156669
 30
0.0
  0
VERTEX
  5
5B0
  8
0
  6
CONTINUOUS
 62
     7
 10
79.4700344121
 20
120.5173444519
 30
0.0
  0
SEQEND
  5
63F
  8
0
  6
CONTINUOUS
 62
     7
  0
POLYLINE
  5
39A
  8
0
  6
CONTINUOUS
 62
     7
 66
     1
 10
0.0
 20
0.0
 30
0.0
 70
   128
  0
VERTEX
  5
5B1
  8
0
  6
CONTINUOUS
 62
     7
 10
79.4637538153
 20
120.4895062521
 30
0.0
  0
VERTEX
  5
5B2
  8
0
  6
CONTINUOUS
 62
     7
 10
79.5634600762
 20
120.3779085277
 30
0.0
  0
VERTEX
  5
5B3
  8
0
  6
CONTINUOUS
 62
     7
 10
79.7371917863
 20
120.2358620668
 30
0.0
  0
SEQEND
  5
640
  8
0
  6
CONTINUOUS
 62
     7
  0
ARC
  5
39B
  8
0
  6
CONTINUOUS
 62
     7
 10
79.6279438229
 20
120.5367004778
 30
0.0
 40
0.1590912874922841
 50
175.8780811352
 51
186.9882711169
  0
LINE
  5
39C
  8
0
  6
CONTINUOUS
 62
     7
 10
79.3235552399
 20
118.8931271112
 30
0.0
 11
79.4637538153
 21
120.4895062521
 31
0.0
  0
LINE
  5
39D
  8
0
  6
CONTINUOUS
 62
     7
 10
79.6537453419
 20
119.2856943285
 30
0.0
 11
79.3235552399
 21
118.8931271112
 31
0.0
  0
ARC
  5
39E
  8
0
  6
CONTINUOUS
 62
     7
 10
79.5044434699
 20
118.8959482946
 30
0.0
 40
0.1809102287021692
 50
180.8935285706
 51
223.2074417452
  0
LINE
  5
39F
  8
0
  6
CONTINUOUS
 62
     7
 10
79.6934050083
 20
119.1535205404
 30
0.0
 11
79.3725816749
 21
118.7720895935
 31
0.0
  0
POLYLINE
  5
3A0
  8
0
  6
CONTINUOUS
 62
     7
 66
     1
 10
0.0
 20
0.0
 30
0.0
 70
   128
  0
VERTEX
  5
5B4
  8
0
  6
CONTINUOUS
 62
     7
 10
79.5309511877
 20
118.3985227359
 30
0.0
  0
VERTEX
  5
5B5
  8
0
  6
CONTINUOUS
 62
     7
 10
79.5769420418
 20
118.434186903
 30
0.0
  0
VERTEX
  5
5B6
  8
0
  6
CONTINUOUS
 62
     7
 10
79.6565818932
 20
118.4349192489
 30
0.0
  0
SEQEND
  5
641
  8
0
  6
CONTINUOUS
 62
     7
  0
ARC
  5
3A1
  8
0
  6
CONTINUOUS
 62
     7
 10
79.5534361448
 20
118.6623584587
 30
0.0
 40
0.2647921107638984
 50
175.0864258057
 51
265.1288336249
  0
POLYLINE
  5
3A2
  8
0
  6
CONTINUOUS
 62
     7
 66
     1
 10
0.0
 20
0.0
 30
0.0
 70
   128
  0
VERTEX
  5
5B7
  8
0
  6
CONTINUOUS
 62
     7
 10
79.3725816749
 20
118.7720895935
 30
0.0
  0
VERTEX
  5
5B8
  8
0
  6
CONTINUOUS
 62
     7
 10
79.3451037757
 20
118.7094292959
 30
0.0
  0
VERTEX
  5
5B9
  8
0
  6
CONTINUOUS
 62
     7
 10
79.2896171366
 20
118.6850386892
 30
0.0
  0
SEQEND
  5
642
  8
0
  6
CONTINUOUS
 62
     7
  0
ARC
  5
3A3
  8
0
  6
CONTINUOUS
 62
     7
 10
79.7912101134
 20
118.5350829527
 30
0.0
 40
0.1678020417972366
 50
216.6493318425
 51
260.9112880217
  0
ARC
  5
3A4
  8
0
  6
CONTINUOUS
 62
     7
 10
79.8267119798
 20
123.124795349
 30
0.0
 40
0.1359993357576374
 50
116.7423778284
 51
171.4621035734
  0
ARC
  5
3A5
  8
0
  6
CONTINUOUS
 62
     7
 10
79.7035565157
 20
123.1571459375
 30
0.0
 40
0.0170114442191422
 50
234.1740659103
 51
246.1113102214
  0
ARC
  5
3A6
  8
0
  6
CONTINUOUS
 62
     7
 10
79.6957001224
 20
123.1465267357
 30
0.0
 40
0.0038059930414592
 50
203.874958445
 51
236.4971596913
  0
POLYLINE
  5
3A7
  8
0
  6
CONTINUOUS
 62
     7
 66
     1
 10
0.0
 20
0.0
 30
0.0
 70
   128
  0
VERTEX
  5
5BA
  8
0
  6
CONTINUOUS
 62
     7
 10
79.6482605653
 20
123.2876540759
 30
0.0
  0
VERTEX
  5
5BB
  8
0
  6
CONTINUOUS
 62
     7
 10
79.683246806
 20
123.2344979324
 30
0.0
  0
VERTEX
  5
5BC
  8
0
  6
CONTINUOUS
 62
     7
 10
79.6922198046
 20
123.1449862906
 30
0.0
  0
SEQEND
  5
643
  8
0
  6
CONTINUOUS
 62
     7
  0
POLYLINE
  5
3A8
  8
0
  6
CONTINUOUS
 62
     7
 66
     1
 10
0.0
 20
0.0
 30
0.0
 70
   128
  0
VERTEX
  5
5BD
  8
0
  6
CONTINUOUS
 62
     7
 10
79.7034227171
 20
123.3968610732
 30
0.0
  0
VERTEX
  5
5BE
  8
0
  6
CONTINUOUS
 62
     7
 10
79.6672639448
 20
123.3462910059
 30
0.0
  0
VERTEX
  5
5BF
  8
0
  6
CONTINUOUS
 62
     7
 10
79.6482616969
 20
123.2876540261
 30
0.0
  0
SEQEND
  5
644
  8
0
  6
CONTINUOUS
 62
     7
  0
ARC
  5
3A9
  8
0
  6
CONTINUOUS
 62
     7
 10
79.5589958018
 20
121.5531346573
 30
0.0
 40
0.0083152263831404
 50
212.9894090737
 51
252.3091799392
  0
LINE
  5
3AA
  8
0
  6
CONTINUOUS
 62
     7
 10
79.6922198046
 20
123.1449862906
 30
0.0
 11
79.5520212291
 21
121.5486071496
 31
0.0
  0
POLYLINE
  5
3AB
  8
0
  6
CONTINUOUS
 62
     7
 66
     1
 10
0.0
 20
0.0
 30
0.0
 70
   128
  0
VERTEX
  5
5C0
  8
0
  6
CONTINUOUS
 62
     7
 10
79.5520212291
 20
121.5486071496
 30
0.0
  0
VERTEX
  5
5C1
  8
0
  6
CONTINUOUS
 62
     7
 10
79.5489083595
 20
121.5202039881
 30
0.0
  0
VERTEX
  5
5C2
  8
0
  6
CONTINUOUS
 62
     7
 10
79.5462321627
 20
121.4928408014
 30
0.0
  0
SEQEND
  5
645
  8
0
  6
CONTINUOUS
 62
     7
  0
LINE
  5
3AC
  8
0
  6
CONTINUOUS
 62
     7
 10
79.5462321627
 20
121.4928408014
 30
0.0
 11
79.4635768783
 21
120.5516816536
 31
0.0
  0
POLYLINE
  5
3AD
  8
0
  6
CONTINUOUS
 62
     7
 66
     1
 10
0.0
 20
0.0
 30
0.0
 70
   128
  0
VERTEX
  5
5C3
  8
0
  6
CONTINUOUS
 62
     7
 10
79.4635768783
 20
120.5516816536
 30
0.0
  0
VERTEX
  5
5C4
  8
0
  6
CONTINUOUS
 62
     7
 10
79.4613798444
 20
120.5235583775
 30
0.0
  0
VERTEX
  5
5C5
  8
0
  6
CONTINUOUS
 62
     7
 10
79.4593060776
 20
120.4929007451
 30
0.0
  0
SEQEND
  5
646
  8
0
  6
CONTINUOUS
 62
     7
  0
LINE
  5
3AE
  8
0
  6
CONTINUOUS
 62
     7
 10
79.4593060776
 20
120.4929007451
 30
0.0
 11
79.3191075022
 21
118.8965216041
 31
0.0
  0
POLYLINE
  5
3AF
  8
0
  6
CONTINUOUS
 62
     7
 66
     1
 10
0.0
 20
0.0
 30
0.0
 70
   128
  0
VERTEX
  5
5C6
  8
0
  6
CONTINUOUS
 62
     7
 10
79.3191075022
 20
118.8965216041
 30
0.0
  0
VERTEX
  5
5C7
  8
0
  6
CONTINUOUS
 62
     7
 10
79.2964110161
 20
118.8296501932
 30
0.0
  0
VERTEX
  5
5C8
  8
0
  6
CONTINUOUS
 62
     7
 10
79.2542769402
 20
118.8015187623
 30
0.0
  0
SEQEND
  5
647
  8
0
  6
CONTINUOUS
 62
     7
  0
LINE
  5
3B0
  8
0
  6
CONTINUOUS
 62
     7
 10
79.2542769402
 20
118.8015187623
 30
0.0
 11
79.2550220057
 21
118.8444611273
 31
0.0
  0
LINE
  5
3B1
  8
0
  6
CONTINUOUS
 62
     7
 10
79.2550220057
 20
118.8444611276
 30
0.0
 11
79.6416013026
 21
123.2462685214
 31
0.0
  0
LINE
  5
3B2
  8
0
  6
CONTINUOUS
 62
     7
 10
79.6416013026
 20
123.2462685214
 30
0.0
 11
79.6482605653
 21
123.2876540759
 31
0.0
  0
LINE
  5
3B3
  8
0
  6
CONTINUOUS
 62
     7
 10
79.55771963
 20
121.5157772281
 30
0.0
 11
79.5520212291
 21
121.5486071496
 31
0.0
  0
ARC
  5
3B4
  8
0
  6
CONTINUOUS
 62
     7
 10
79.5559398584
 20
121.5020771843
 30
0.0
 40
0.0133996314937134
 50
223.5748227199
 51
252.5395413036
  0
POLYLINE
  5
3B5
  8
0
  6
CONTINUOUS
 62
     7
 66
     1
 10
0.0
 20
0.0
 30
0.0
 70
   128
  0
VERTEX
  5
5C9
  8
0
  6
CONTINUOUS
 62
     7
 10
79.6353007545
 20
123.3176412166
 30
0.0
  0
VERTEX
  5
5CA
  8
0
  6
CONTINUOUS
 62
     7
 10
79.6607660277
 20
123.3620395658
 30
0.0
  0
VERTEX
  5
5CB
  8
0
  6
CONTINUOUS
 62
     7
 10
79.7034227171
 20
123.3968610732
 30
0.0
  0
SEQEND
  5
648
  8
0
  6
CONTINUOUS
 62
     7
  0
LINE
  5
3B6
  8
0
  6
CONTINUOUS
 62
     7
 10
79.6391930156
 20
123.3029962153
 30
0.0
 11
79.6482616969
 21
123.2876540261
 31
0.0
  0
LINE
  5
3B7
  8
0
  6
CONTINUOUS
 62
     7
 10
79.6353007545
 20
123.3176412166
 30
0.0
 11
79.6391930156
 21
123.3029962153
 31
0.0
  0
ARC
  5
3B8
  8
0
  6
CONTINUOUS
 62
     7
 10
79.4732845741
 20
120.5609180365
 30
0.0
 40
0.0133996314935758
 50
223.5748227197
 51
252.5395413038
  0
ARC
  5
3B9
  8
0
  6
CONTINUOUS
 62
     7
 10
80.0258754626
 20
123.3178880708
 30
0.0
 40
0.3854641615778299
 50
105.9298414285
 51
165.8779676221
  0
LINE
  5
3BA
  8
0
  6
CONTINUOUS
 62
     7
 10
79.4593060776
 20
120.4929007451
 30
0.0
 11
79.4700344121
 21
120.5173444519
 31
0.0
  0
ARC
  5
3BB
  8
0
  6
CONTINUOUS
 62
     7
 10
79.4662806498
 20
120.4974282523
 30
0.0
 40
0.0083152257295767
 50
212.9894080952
 51
252.3091788632
  0
ARC
  5
3BC
  8
0
  6
CONTINUOUS
 62
     7
 10
79.3304442315
 20
118.9086812863
 30
0.0
 40
0.0170114834376552
 50
234.1740858176
 51
246.1113011682
  0
ARC
  5
3BD
  8
0
  6
CONTINUOUS
 62
     7
 10
79.3225878199
 20
118.8980620492
 30
0.0
 40
0.0038059930391338
 50
203.8749584113
 51
236.4971596984
  0
LINE
  5
3BE
  8
0
  6
CONTINUOUS
 62
     7
 10
79.6416013026
 20
123.2462685214
 30
0.0
 11
79.6239138247
 21
123.2528007878
 31
0.0
  0
LINE
  5
3BF
  8
0
  6
CONTINUOUS
 62
     7
 10
79.6239138246
 20
123.2528007871
 30
0.0
 11
79.6353006448
 21
123.3176409051
 31
0.0
  0
LINE
  5
3C0
  8
0
  6
CONTINUOUS
 62
     7
 10
79.6239138246
 20
123.2528007871
 30
0.0
 11
79.579646296
 21
123.2860766051
 31
0.0
  0
ARC
  5
3C1
  8
0
  6
CONTINUOUS
 62
     7
 10
80.1072097155
 20
123.2395292407
 30
0.0
 40
0.5296130226694207
 50
129.8632378656
 51
174.9582043959
  0
POLYLINE
  5
3C2
  8
0
  6
CONTINUOUS
 62
     7
 66
     1
 10
0.0
 20
0.0
 30
0.0
 70
   128
  0
VERTEX
  5
5CC
  8
0
  6
CONTINUOUS
 62
     7
 10
79.9975634898
 20
123.7523288468
 30
0.0
  0
VERTEX
  5
5CD
  8
0
  6
CONTINUOUS
 62
     7
 10
79.8701725251
 20
123.7132834101
 30
0.0
  0
VERTEX
  5
5CE
  8
0
  6
CONTINUOUS
 62
     7
 10
79.7677503979
 20
123.6460477832
 30
0.0
  0
SEQEND
  5
649
  8
0
  6
CONTINUOUS
 62
     7
  0
ARC
  5
3C3
  8
0
  6
CONTINUOUS
 62
     7
 10
79.4733886782
 20
118.8891171754
 30
0.0
 40
0.154458754518939
 50
177.2523074475
 51
229.2585463893
  0
LINE
  5
3C4
  8
0
  6
CONTINUOUS
 62
     7
 10
79.2373345278
 20
118.850993394
 30
0.0
 11
79.2550220057
 21
118.8444611276
 31
0.0
  0
LINE
  5
3C5
  8
0
  6
CONTINUOUS
 62
     7
 10
79.2373345254
 20
118.8509933673
 30
0.0
 11
79.6239138247
 21
123.2528007875
 31
0.0
  0
LINE
  5
3C6
  8
0
  6
CONTINUOUS
 62
     7
 10
79.2059300538
 20
119.030734804
 30
0.0
 11
79.1930669612
 21
118.8842691837
 31
0.0
  0
LINE
  5
3C7
  8
0
  6
CONTINUOUS
 62
     7
 10
79.2307190598
 20
119.312995584
 30
0.0
 11
79.2059300538
 21
119.030734804
 31
0.0
  0
LINE
  5
3C8
  8
0
  6
CONTINUOUS
 62
     7
 10
79.579646296
 20
123.2860766051
 30
0.0
 11
79.2307189789
 21
119.3129956448
 31
0.0
  0
LINE
  5
3C9
  8
0
  6
CONTINUOUS
 62
     7
 10
79.1930669612
 20
118.8842691837
 30
0.0
 11
79.2373345231
 21
118.8509933406
 31
0.0
  0
POLYLINE
  5
3CA
  8
0
  6
CONTINUOUS
 62
     7
 66
     1
 10
0.0
 20
0.0
 30
0.0
 70
   128
  0
VERTEX
  5
5CF
  8
0
  6
CONTINUOUS
 62
     7
 10
79.2542731356
 20
118.8015189297
 30
0.0
  0
VERTEX
  5
5D0
  8
0
  6
CONTINUOUS
 62
     7
 10
79.2627187049
 20
118.7399208771
 30
0.0
  0
VERTEX
  5
5D1
  8
0
  6
CONTINUOUS
 62
     7
 10
79.2896171372
 20
118.6850386898
 30
0.0
  0
SEQEND
  5
64A
  8
0
  6
CONTINUOUS
 62
     7
  0
POLYLINE
  5
3CB
  8
0
  6
CONTINUOUS
 62
     7
 66
     1
 10
0.0
 20
0.0
 30
0.0
 70
   128
  0
VERTEX
  5
5D2
  8
0
  6
CONTINUOUS
 62
     7
 10
79.5309511883
 20
118.3985227364
 30
0.0
  0
VERTEX
  5
5D3
  8
0
  6
CONTINUOUS
 62
     7
 10
79.5811240188
 20
118.361911344
 30
0.0
  0
VERTEX
  5
5D4
  8
0
  6
CONTINUOUS
 62
     7
 10
79.6402738106
 20
118.3432678441
 30
0.0
  0
SEQEND
  5
64B
  8
0
  6
CONTINUOUS
 62
     7
  0
LINE
  5
3CC
  8
0
  6
CONTINUOUS
 62
     7
 10
79.6823325081
 20
118.3371501465
 30
0.0
 11
79.6402737116
 21
118.3432666678
 31
0.0
  0
POLYLINE
  5
3CD
  8
0
  6
CONTINUOUS
 62
     7
 66
     1
 10
0.0
 20
0.0
 30
0.0
 70
   128
  0
VERTEX
  5
5D5
  8
0
  6
CONTINUOUS
 62
     7
 10
79.2896171372
 20
118.6850386898
 30
0.0
  0
VERTEX
  5
5D6
  8
0
  6
CONTINUOUS
 62
     7
 10
79.2540239547
 20
118.7306664522
 30
0.0
  0
VERTEX
  5
5D7
  8
0
  6
CONTINUOUS
 62
     7
 10
79.2371293475
 20
118.7838140417
 30
0.0
  0
SEQEND
  5
64C
  8
0
  6
CONTINUOUS
 62
     7
  0
LINE
  5
3CE
  8
0
  6
CONTINUOUS
 62
     7
 10
79.2430795382
 20
118.7926308808
 30
0.0
 11
79.2371293475
 21
118.7838140417
 31
0.0
  0
LINE
  5
3CF
  8
0
  6
CONTINUOUS
 62
     7
 10
79.2542731356
 20
118.8015189297
 30
0.0
 11
79.2430795382
 21
118.7926308808
 31
0.0
  0
POLYLINE
  5
3D0
  8
0
  6
CONTINUOUS
 62
     7
 66
     1
 10
0.0
 20
0.0
 30
0.0
 70
   128
  0
VERTEX
  5
5D8
  8
0
  6
CONTINUOUS
 62
     7
 10
79.6150091901
 20
118.3351722058
 30
0.0
  0
VERTEX
  5
5D9
  8
0
  6
CONTINUOUS
 62
     7
 10
79.5679046474
 20
118.3580161839
 30
0.0
  0
VERTEX
  5
5DA
  8
0
  6
CONTINUOUS
 62
     7
 10
79.5309511883
 20
118.3985227364
 30
0.0
  0
SEQEND
  5
64D
  8
0
  6
CONTINUOUS
 62
     7
  0
LINE
  5
3D1
  8
0
  6
CONTINUOUS
 62
     7
 10
79.6272211966
 20
118.3365723152
 30
0.0
 11
79.6402738106
 21
118.3432678441
 31
0.0
  0
ARC
  5
3D2
  8
0
  6
CONTINUOUS
 62
     7
 10
79.6177806023
 20
118.3649571649
 30
0.0
 40
0.0299136174938282
 50
264.6840844516
 51
288.3967496993
  0
LINE
  5
3D3
  8
0
  6
CONTINUOUS
 62
     7
 10
79.2371241054
 20
118.7838140644
 30
0.0
 11
79.2373345278
 21
118.850993394
 31
0.0
  0
ARC
  5
3D4
  8
0
  6
CONTINUOUS
 62
     7
 10
79.6838730287
 20
118.7824321456
 30
0.0
 40
0.4525302487637557
 50
190.0658254059
 51
261.2470034981
  0
LINE
  5
3D5
  8
0
  6
CONTINUOUS
 62
     7
 10
79.6823325081
 20
118.3371501465
 30
0.0
 11
79.6807850543
 21
118.3245206759
 31
0.0
  0
LINE
  5
3D6
  8
0
  6
CONTINUOUS
 62
     7
 10
79.6807850542
 20
118.3245206759
 30
0.0
 11
79.615009529
 21
118.3351721885
 31
0.0
  0
LINE
  5
3D7
  8
0
  6
CONTINUOUS
 62
     7
 10
79.6769191687
 20
118.3098386628
 30
0.0
 11
79.6807920685
 21
118.3245200646
 31
0.0
  0
ARC
  5
3D8
  8
0
  6
CONTINUOUS
 62
     7
 10
79.7229637455
 20
118.8407313895
 30
0.0
 40
0.5328857868666346
 50
220.1364312079
 51
265.0427749072
  0
ARC
  5
3D9
  8
0
  6
CONTINUOUS
 62
     7
 10
79.7199516353
 20
118.8381230671
 30
0.0
 40
0.5289016456882152
 50
174.9946368756
 51
220.1307485535
  0
LINE
  5
3DA
  8
0
  6
CONTINUOUS
 62
     7
 10
79.7640049508
 20
118.3022486367
 30
0.0
 11
79.6769191527
 21
118.3098384834
 31
0.0
  0
LINE
  5
3DB
  8
0
  6
CONTINUOUS
 62
     7
 10
140.7018955596
 20
125.9952742799
 30
0.0
 11
140.7018955596
 21
127.8840303665
 31
0.0
  0
LINE
  5
3DC
  8
0
  6
CONTINUOUS
 62
     7
 10
140.7018955596
 20
109.5021740241
 30
0.0
 11
140.7018955596
 21
114.7882214818
 31
0.0
  0
POLYLINE
  5
3DD
  8
0
  6
CONTINUOUS
 62
     7
 66
     1
 10
0.0
 20
0.0
 30
0.0
 70
   128
  0
VERTEX
  5
5DB
  8
0
  6
CONTINUOUS
 62
     7
 10
128.4042636796
 20
118.714014744
 30
0.0
  0
VERTEX
  5
5DC
  8
0
  6
CONTINUOUS
 62
     7
 10
136.135831394
 20
117.6583219416
 30
0.0
  0
VERTEX
  5
5DD
  8
0
  6
CONTINUOUS
 62
     7
 10
144.3640049508
 20
116.2078196358
 30
0.0
  0
SEQEND
  5
64E
  8
0
  6
CONTINUOUS
 62
     7
  0
LINE
  5
3DE
  8
0
  6
CONTINUOUS
 62
     7
 10
135.9690049508
 20
110.6931021953
 30
0.0
 11
135.9690049508
 21
116.5823090781
 31
0.0
  0
ARC
  5
3DF
  8
0
  6
CONTINUOUS
 62
     7
 10
124.6972715566
 20
11.0098785562
 30
0.0
 40
109.5890329943572
 50
80.1523327828
 51
91.4583153383
  0
LINE
  5
3E0
  8
0
  6
CONTINUOUS
 62
     7
 10
135.9690049508
 20
125.8350893441
 30
0.0
 11
135.9690049508
 21
126.6931021953
 31
0.0
  0
LINE
  5
3E1
  8
0
  6
CONTINUOUS
 62
     7
 10
88.2640049508
 20
115.8931021953
 30
0.0
 11
91.5194727719
 21
115.863774473
 31
0.0
  0
LINE
  5
3E2
  8
0
  6
CONTINUOUS
 62
     7
 10
83.9526071471
 20
115.8931021953
 30
0.0
 11
79.7916426761
 21
115.8931021953
 31
0.0
  0
LINE
  5
3E3
  8
0
  6
CONTINUOUS
 62
     7
 10
79.9649405401
 20
122.6953523549
 30
0.0
 11
79.7655150474
 21
123.2462480344
 31
0.0
  0
LINE
  5
3E4
  8
0
  6
CONTINUOUS
 62
     7
 10
79.735256312
 20
119.3940892504
 30
0.0
 11
79.7640049508
 21
119.7214372792
 31
0.0
  0
LINE
  5
3E5
  8
0
  6
CONTINUOUS
 62
     7
 10
79.6565818932
 20
118.4349192489
 30
0.0
 11
79.7640049508
 21
118.460112188
 31
0.0
  0
LINE
  5
3E6
  8
0
  6
CONTINUOUS
 62
     7
 10
79.652060697
 20
123.4119366798
 30
0.0
 11
79.63530073
 21
123.3176412221
 31
0.0
  0
LINE
  5
3E7
  8
0
  6
CONTINUOUS
 62
     7
 10
79.6402737116
 20
118.3432666678
 30
0.0
 11
79.6844166201
 21
118.3689495009
 31
0.0
  0
LINE
  5
3E8
  8
0
  6
CONTINUOUS
 62
     7
 10
79.7640049508
 20
118.3300319241
 30
0.0
 11
79.6823325081
 21
118.3371501465
 31
0.0
  0
LINE
  5
3E9
  8
0
  6
CONTINUOUS
 62
     7
 10
79.2371241328
 20
118.7838137231
 30
0.0
 11
79.2383083047
 21
118.7033391445
 31
0.0
  0
LINE
  5
3EA
  8
0
  6
CONTINUOUS
 62
     7
 10
79.6807850543
 20
118.3245206759
 30
0.0
 11
79.7640049508
 21
118.317267584
 31
0.0
  0
LINE
  5
3EB
  8
0
  6
CONTINUOUS
 62
     7
 10
79.5135505608
 20
115.1274706814
 30
0.0
 11
79.5135505608
 21
105.1318430573
 31
0.0
  0
LINE
  5
3EC
  8
0
  6
CONTINUOUS
 62
     7
 10
80.3050737048
 20
110.1943749991
 30
0.0
 11
76.8789627664
 21
110.1943749991
 31
0.0
  0
LINE
  5
3ED
  8
0
  6
CONTINUOUS
 62
     7
 10
79.5135505608
 20
127.1943749991
 30
0.0
 11
75.652736313
 21
127.1943749991
 31
0.0
  0
LINE
  5
3EE
  8
0
  6
CONTINUOUS
 62
     7
 10
130.5135505608
 20
110.6931021953
 30
0.0
 11
130.5135505608
 21
105.6726887466
 31
0.0
  0
DIMENSION
  5
3EF
  8
0
  6
CONTINUOUS
 62
     7
  2
_D
 10
71.7840214543
 20
110.1943749991
 30
0.0
 11
71.7840214543
 21
118.6651791211
 31
0.0
 70
   160
  1
%%c<>
  3
SLDDIMSTYLE0
 13
75.652736313
 23
127.1943749991
 33
0.0
 14
76.8789627664
 24
110.1943749991
 34
0.0
 50
90.0
  0
DIMENSION
  5
3FD
  8
0
  6
CONTINUOUS
 62
     7
  2
_D_1
 10
207.5140049508
 20
76.5696744781
 30
0.0
 11
147.150641366
 21
76.5696744781
 31
0.0
 70
   160
  1
<>
  3
SLDDIMSTYLE1
 13
79.5135505608
 23
105.1318430573
 33
0.0
 14
207.5140049508
 24
112.6136285339
 34
0.0
  0
DIMENSION
  5
408
  8
0
  6
CONTINUOUS
 62
     7
  2
_D_2
 10
79.5135505608
 20
87.5447343555
 30
0.0
 11
119.8172742169
 21
87.5447343555
 31
0.0
 70
   160
  1
<>
  3
SLDDIMSTYLE1
 13
157.5140049508
 23
104.1931021953
 33
0.0
 14
79.5135505608
 24
105.1318430573
 34
0.0
  0
DIMENSION
  5
412
  8
0
  6
CONTINUOUS
 62
     7
  2
_D_3
 10
130.5135505608
 20
99.5881108724
 30
0.0
 11
105.7363649465
 21
99.5881108724
 31
0.0
 70
   160
  1
<>
  3
SLDDIMSTYLE1
 13
79.5135505608
 23
105.1318430573
 33
0.0
 14
130.5135505608
 24
105.6726887466
 34
0.0
  0
DIMENSION
  5
41C
  8
0
  6
CONTINUOUS
 62
     7
  2
_D_4
 10
225.1562050403
 20
103.6931021953
 30
0.0
 11
225.1562050403
 21
119.8915493523
 31
0.0
 70
   160
  1
%%c<>
  3
SLDDIMSTYLE1
 13
157.0140049508
 23
133.6931021953
 33
0.0
 14
157.0140049508
 24
103.6931021953
 34
0.0
 50
90.0
  0
DIMENSION
  5
427
  8
0
  6
CONTINUOUS
 62
     7
  2
_D_5
 10
215.67895328
 20
128.6931021953
 30
0.0
 11
215.67895328
 21
118.6137176543
 31
0.0
 70
   160
  1
%%c<>h6
  3
SLDDIMSTYLE1
 13
205.2640049508
 23
108.6931021953
 33
0.0
 14
205.2640049508
 24
128.6931021953
 34
0.0
 50
90.0
  0
DIMENSION
  5
433
  8
0
  6
CONTINUOUS
 62
     7
  2
_D_6
 10
207.5140049508
 20
87.5447343555
 30
0.0
 11
184.9397621496
 21
87.5447343555
 31
0.0
 70
   160
  1
<>
  3
SLDDIMSTYLE1
 13
157.5140049508
 23
104.1931021953
 33
0.0
 14
207.5140049508
 24
112.6136285339
 34
0.0
  0
LINE
  5
43D
  8
0
  6
CENTERX2
 62
     7
 10
77.6707218876
 20
118.6931021953
 30
0.0
 11
207.2640049508
 21
118.6931021953
 31
0.0
  0
ENDSEC
  0
EOF
